как разбогатеть как стать богатым

Видео с http://fractal-recursions.com/

Все видео с http://fractal-recursions.com/

Общая продолжительность : около часа
Размер кадра:       от 320*240 до 1920*1080
Общее количество роликов: 22
General
Complete name : D:\fractal-recursions{Text}31304apo.mpg
Format : MPEG-PS
File size : 80.5 MiB
Duration : 1mn 28s
Overall bit rate : 7 652 Kbps

Video
ID : 224 (0xE0)
Format : MPEG Video
Format version : Version 2
Format profile : Main@Main
Format settings, Matrix : Default
Duration : 1mn 28s
Bit rate mode : Variable
Bit rate : 5 812 Kbps
Nominal bit rate : 8 000 Kbps
Width : 720 pixels
Height : 480 pixels
Display aspect ratio : 4:3
Frame rate : 29.970 fps
Standard : NTSC
Colorimetry : 4:2:0
Scan type : Progressive
Bits/(Pixel*Frame) : 0.561
Stream size : 61.1 MiB (76%)

Audio
ID : 160 (0xA0)
Format : PCM
Format settings, Endianness : Big
Format settings, Sign : Signed
Muxing mode : DVD-Video
Duration : 1mn 28s
Bit rate mode : Constant
Bit rate : 1 536 Kbps
Channel(s) : 2 channels
Channel positions : Front: L R
Sampling rate : 48.0 KHz
Resolution : 16 bits
Stream size : 16.1 MiB (20%)

Menu

General
Complete name : D:\fractal-recursions{Text}92303big.mpg
Format : MPEG-PS
File size : 18.7 MiB
Duration : 35s 928ms
Overall bit rate : 4 367 Kbps

Video
ID : 224 (0xE0)
Format : MPEG Video
Format version : Version 2
Format profile : Main@Main
Format settings, Matrix : Default
Duration : 35s 902ms
Bit rate mode : Variable
Bit rate : 3 970 Kbps
Nominal bit rate : 6 000 Kbps
Width : 720 pixels
Height : 480 pixels
Display aspect ratio : 4:3
Frame rate : 29.970 fps
Standard : NTSC
Colorimetry : 4:2:0
Scan type : Progressive
Bits/(Pixel*Frame) : 0.383
Stream size : 17.0 MiB (91%)

Audio
ID : 192 (0xC0)
Format : MPEG Audio
Format version : Version 1
Format profile : Layer 2
Duration : 35s 928ms
Bit rate mode : Constant
Bit rate : 224 Kbps
Channel(s) : 2 channels
Sampling rate : 48.0 KHz
Resolution : 16 bits
Stream size : 982 KiB (5%)

General
Complete name : D:\fractal-recursions\101604.mpg
Format : MPEG-PS
File size : 17.2 MiB
Duration : 1mn 42s
Overall bit rate : 1 399 Kbps

Video
ID : 224 (0xE0)
Format : MPEG Video
Format version : Version 1
Format settings, Matrix : Default
Duration : 1mn 42s
Bit rate mode : Constant
Bit rate : 1 119 Kbps
Nominal bit rate : 1 150 Kbps
Width : 352 pixels
Height : 240 pixels
Display aspect ratio : 4:3
Frame rate : 29.970 fps
Scan type : Progressive
Bits/(Pixel*Frame) : 0.442
Stream size : 13.7 MiB (80%)

Audio
ID : 192 (0xC0)
Format : MPEG Audio
Format version : Version 1
Format profile : Layer 2
Duration : 1mn 42s
Bit rate mode : Constant
Bit rate : 224 Kbps
Channel(s) : 2 channels
Sampling rate : 44.1 KHz
Resolution : 16 bits
Stream size : 2.75 MiB (16%)

General
Complete name : D:\fractal-recursions\111472.mpg
Format : MPEG-PS
File size : 122 MiB
Duration : 2mn 13s
Overall bit rate : 7 692 Kbps

Video
ID : 224 (0xE0)
Format : MPEG Video
Format version : Version 2
Format profile : Main@Main
Format settings, Matrix : Default
Duration : 2mn 13s
Bit rate mode : Variable
Bit rate : 5 850 Kbps
Nominal bit rate : 8 000 Kbps
Width : 720 pixels
Height : 480 pixels
Display aspect ratio : 4:3
Frame rate : 29.970 fps
Standard : NTSC
Colorimetry : 4:2:0
Scan type : Progressive
Bits/(Pixel*Frame) : 0.565
Stream size : 93.1 MiB (76%)

Audio
ID : 160 (0xA0)
Format : PCM
Format settings, Endianness : Big
Format settings, Sign : Signed
Muxing mode : DVD-Video
Duration : 2mn 13s
Bit rate mode : Constant
Bit rate : 1 536 Kbps
Channel(s) : 2 channels
Channel positions : Front: L R
Sampling rate : 48.0 KHz
Resolution : 16 bits
Stream size : 24.4 MiB (20%)

Menu

General
Complete name : D:\fractal-recursions\11854.mpg
Format : MPEG-PS
File size : 94.1 MiB
Duration : 1mn 43s
Overall bit rate : 7 649 Kbps

Video
ID : 224 (0xE0)
Format : MPEG Video
Format version : Version 2
Format profile : Main@Main
Format settings, Matrix : Default
Duration : 1mn 43s
Bit rate mode : Variable
Bit rate : 5 809 Kbps
Nominal bit rate : 8 000 Kbps
Width : 720 pixels
Height : 480 pixels
Display aspect ratio : 4:3
Frame rate : 29.970 fps
Standard : NTSC
Colorimetry : 4:2:0
Scan type : Progressive
Bits/(Pixel*Frame) : 0.561
Stream size : 71.5 MiB (76%)

Audio
ID : 160 (0xA0)
Format : PCM
Format settings, Endianness : Big
Format settings, Sign : Signed
Muxing mode : DVD-Video
Duration : 1mn 43s
Bit rate mode : Constant
Bit rate : 1 536 Kbps
Channel(s) : 2 channels
Channel positions : Front: L R
Sampling rate : 48.0 KHz
Resolution : 16 bits
Stream size : 18.9 MiB (20%)

Menu

General
Complete name : D:\fractal-recursions\1767hd.MP4
Format : MPEG-4
Format profile : Base Media / Version 2
Codec ID : mp42
File size : 294 MiB
Duration : 1mn 39s
Overall bit rate : 24.7 Mbps
Encoded date : UTC 2009-04-10 20:31:28
Tagged date : UTC 2009-04-10 20:31:28

Video
ID : 2
Format : AVC
Format/Info : Advanced Video Codec
Format profile : High@L4.1
Format settings, CABAC : Yes
Format settings, ReFrames : 2 frames
Codec ID : avc1
Codec ID/Info : Advanced Video Coding
Duration : 1mn 39s
Bit rate mode : Variable
Bit rate : 24.6 Mbps
Maximum bit rate : 40.8 Mbps
Width : 1 920 pixels
Height : 1 080 pixels
Display aspect ratio : 16:9
Frame rate : 29.970 fps
Resolution : 24 bits
Colorimetry : 4:2:0
Scan type : MBAFF
Bits/(Pixel*Frame) : 0.395
Stream size : 293 MiB (99%)
Encoded date : UTC 2009-04-10 20:31:28
Tagged date : UTC 2009-04-10 20:35:47
Color primaries : BT.709-5, BT.1361, IEC 61966-2-4, SMPTE RP177
Transfer characteristics : BT.709-5, BT.1361
Matrix coefficients : BT.709-5, BT.1361, IEC 61966-2-4 709, SMPTE RP177

Audio
ID : 1
Format : AAC
Format/Info : Advanced Audio Codec
Format version : Version 4
Format profile : LC
Format settings, SBR : Yes
Format settings, PS : No
Codec ID : 40
Duration : 1mn 39s
Bit rate mode : Variable
Bit rate : 128 Kbps
Maximum bit rate : 130 Kbps
Channel(s) : 2 channels
Channel positions : L R
Sampling rate : 96.0 KHz
Resolution : 16 bits
Stream size : 1.52 MiB (1%)
Encoded date : UTC 2009-04-10 20:31:28
Tagged date : UTC 2009-04-10 20:35:46

General
Complete name : D:\fractal-recursions\1767sm.mpg
Format : MPEG-PS
File size : 23.7 MiB
Duration : 1mn 42s
Overall bit rate : 1 946 Kbps

Video
ID : 224 (0xE0)
Format : MPEG Video
Format version : Version 1
Format settings, Matrix : Default
Duration : 1mn 42s
Bit rate mode : Constant
Bit rate : 1 645 Kbps
Nominal bit rate : 1 700 Kbps
Width : 352 pixels
Height : 240 pixels
Display aspect ratio : 4:3
Frame rate : 29.970 fps
Scan type : Progressive
Bits/(Pixel*Frame) : 0.650
Stream size : 20.0 MiB (85%)

Audio
ID : 192 (0xC0)
Format : MPEG Audio
Format version : Version 1
Format profile : Layer 2
Duration : 1mn 42s
Bit rate mode : Constant
Bit rate : 224 Kbps
Channel(s) : 2 channels
Sampling rate : 48.0 KHz
Resolution : 16 bits
Stream size : 2.72 MiB (12%)

General
Complete name : D:\fractal-recursions\2266sm.mpg
Format : MPEG-PS
File size : 23.6 MiB
Duration : 1mn 41s
Overall bit rate : 1 943 Kbps

Video
ID : 224 (0xE0)
Format : MPEG Video
Format version : Version 1
Format settings, Matrix : Default
Duration : 1mn 41s
Bit rate mode : Constant
Bit rate : 1 642 Kbps
Nominal bit rate : 1 700 Kbps
Width : 352 pixels
Height : 240 pixels
Display aspect ratio : 4:3
Frame rate : 29.970 fps
Scan type : Progressive
Bits/(Pixel*Frame) : 0.649
Stream size : 19.9 MiB (85%)

Audio
ID : 192 (0xC0)
Format : MPEG Audio
Format version : Version 1
Format profile : Layer 2
Duration : 1mn 41s
Bit rate mode : Constant
Bit rate : 224 Kbps
Channel(s) : 2 channels
Sampling rate : 48.0 KHz
Resolution : 16 bits
Stream size : 2.71 MiB (12%)

General
Complete name : D:\fractal-recursions\246g3sm.mpg
Format : MPEG-PS
File size : 31.4 MiB
Duration : 2mn 15s
Overall bit rate : 1 944 Kbps

Video
ID : 224 (0xE0)
Format : MPEG Video
Format version : Version 1
Format settings, Matrix : Default
Duration : 2mn 15s
Bit rate mode : Constant
Bit rate : 1 643 Kbps
Nominal bit rate : 1 700 Kbps
Width : 352 pixels
Height : 240 pixels
Display aspect ratio : 4:3
Frame rate : 29.970 fps
Scan type : Progressive
Bits/(Pixel*Frame) : 0.649
Stream size : 26.5 MiB (85%)

Audio
ID : 192 (0xC0)
Format : MPEG Audio
Format version : Version 1
Format profile : Layer 2
Duration : 2mn 15s
Bit rate mode : Constant
Bit rate : 224 Kbps
Channel(s) : 2 channels
Sampling rate : 48.0 KHz
Resolution : 16 bits
Stream size : 3.62 MiB (12%)

General
Complete name : D:\fractal-recursions\33163hd.MP4
Format : MPEG-4
Format profile : Base Media / Version 2
Codec ID : mp42
File size : 396 MiB
Duration : 2mn 13s
Overall bit rate : 24.8 Mbps
Encoded date : UTC 2009-04-10 21:07:10
Tagged date : UTC 2009-04-10 21:07:10

Video
ID : 1
Format : AVC
Format/Info : Advanced Video Codec
Format profile : High@L4.1
Format settings, CABAC : Yes
Format settings, ReFrames : 2 frames
Codec ID : avc1
Codec ID/Info : Advanced Video Coding
Duration : 2mn 13s
Bit rate mode : Variable
Bit rate : 24.7 Mbps
Maximum bit rate : 45.8 Mbps
Width : 1 920 pixels
Height : 1 080 pixels
Display aspect ratio : 16:9
Frame rate : 29.970 fps
Resolution : 24 bits
Colorimetry : 4:2:0
Scan type : MBAFF
Bits/(Pixel*Frame) : 0.397
Stream size : 394 MiB (99%)
Encoded date : UTC 2009-04-10 21:07:10
Tagged date : UTC 2009-04-10 21:13:08
Color primaries : BT.709-5, BT.1361, IEC 61966-2-4, SMPTE RP177
Transfer characteristics : BT.709-5, BT.1361
Matrix coefficients : BT.709-5, BT.1361, IEC 61966-2-4 709, SMPTE RP177

Audio
ID : 2
Format : AAC
Format/Info : Advanced Audio Codec
Format version : Version 4
Format profile : LC
Format settings, SBR : Yes
Format settings, PS : No
Codec ID : 40
Duration : 2mn 13s
Bit rate mode : Variable
Bit rate : 128 Kbps
Maximum bit rate : 130 Kbps
Channel(s) : 2 channels
Channel positions : L R
Sampling rate : 96.0 KHz
Resolution : 16 bits
Stream size : 2.04 MiB (1%)
Encoded date : UTC 2009-04-10 21:07:10
Tagged date : UTC 2009-04-10 21:13:08

General
Complete name : D:\fractal-recursions\33163sm.mpg
Format : MPEG-PS
File size : 31.7 MiB
Duration : 2mn 16s
Overall bit rate : 1 944 Kbps

Video
ID : 224 (0xE0)
Format : MPEG Video
Format version : Version 1
Format settings, Matrix : Default
Duration : 2mn 16s
Bit rate mode : Constant
Bit rate : 1 643 Kbps
Nominal bit rate : 1 700 Kbps
Width : 352 pixels
Height : 240 pixels
Display aspect ratio : 4:3
Frame rate : 29.970 fps
Scan type : Progressive
Bits/(Pixel*Frame) : 0.649
Stream size : 26.8 MiB (84%)

Audio
ID : 192 (0xC0)
Format : MPEG Audio
Format version : Version 1
Format profile : Layer 2
Duration : 2mn 16s
Bit rate mode : Constant
Bit rate : 224 Kbps
Channel(s) : 2 channels
Sampling rate : 48.0 KHz
Resolution : 16 bits
Stream size : 3.66 MiB (12%)

General
Complete name : D:\fractal-recursions\3366csm.mpg
Format : MPEG-PS
File size : 15.9 MiB
Duration : 1mn 8s
Overall bit rate : 1 946 Kbps

Video
ID : 224 (0xE0)
Format : MPEG Video
Format version : Version 1
Format settings, Matrix : Default
Duration : 1mn 8s
Bit rate mode : Constant
Bit rate : 1 645 Kbps
Nominal bit rate : 1 700 Kbps
Width : 352 pixels
Height : 240 pixels
Display aspect ratio : 4:3
Frame rate : 29.970 fps
Scan type : Progressive
Bits/(Pixel*Frame) : 0.650
Stream size : 13.4 MiB (84%)

Audio
ID : 192 (0xC0)
Format : MPEG Audio
Format version : Version 1
Format profile : Layer 2
Duration : 1mn 8s
Bit rate mode : Constant
Bit rate : 224 Kbps
Channel(s) : 2 channels
Sampling rate : 48.0 KHz
Resolution : 16 bits
Stream size : 1.83 MiB (12%)

General
Complete name : D:\fractal-recursions\3366dsm.mpg
Format : MPEG-PS
File size : 23.7 MiB
Duration : 1mn 42s
Overall bit rate : 1 945 Kbps

Video
ID : 224 (0xE0)
Format : MPEG Video
Format version : Version 1
Format settings, Matrix : Default
Duration : 1mn 42s
Bit rate mode : Constant
Bit rate : 1 644 Kbps
Nominal bit rate : 1 700 Kbps
Width : 352 pixels
Height : 240 pixels
Display aspect ratio : 4:3
Frame rate : 29.970 fps
Scan type : Progressive
Bits/(Pixel*Frame) : 0.649
Stream size : 20.0 MiB (85%)

Audio
ID : 192 (0xC0)
Format : MPEG Audio
Format version : Version 1
Format profile : Layer 2
Duration : 1mn 42s
Bit rate mode : Constant
Bit rate : 224 Kbps
Channel(s) : 2 channels
Sampling rate : 48.0 KHz
Resolution : 16 bits
Stream size : 2.72 MiB (12%)

General
Complete name : D:\fractal-recursions\596sm.mpg
Format : MPEG-PS
File size : 31.2 MiB
Duration : 2mn 14s
Overall bit rate : 1 944 Kbps

Video
ID : 224 (0xE0)
Format : MPEG Video
Format version : Version 1
Format settings, Matrix : Default
Duration : 2mn 14s
Bit rate mode : Constant
Bit rate : 1 643 Kbps
Nominal bit rate : 1 700 Kbps
Width : 352 pixels
Height : 240 pixels
Display aspect ratio : 4:3
Frame rate : 29.970 fps
Scan type : Progressive
Bits/(Pixel*Frame) : 0.649
Stream size : 26.4 MiB (85%)

Audio
ID : 192 (0xC0)
Format : MPEG Audio
Format version : Version 1
Format profile : Layer 2
Duration : 2mn 14s
Bit rate mode : Constant
Bit rate : 224 Kbps
Channel(s) : 2 channels
Sampling rate : 48.0 KHz
Resolution : 16 bits
Stream size : 3.60 MiB (12%)

General
Complete name : D:\fractal-recursions\dec09sm.mpg
Format : MPEG-PS
File size : 49.1 MiB
Duration : 3mn 31s
Overall bit rate : 1 944 Kbps

Video
ID : 224 (0xE0)
Format : MPEG Video
Format version : Version 1
Format settings, Matrix : Default
Duration : 3mn 31s
Bit rate mode : Constant
Bit rate : 1 642 Kbps
Nominal bit rate : 1 700 Kbps
Width : 352 pixels
Height : 240 pixels
Display aspect ratio : 4:3
Frame rate : 29.970 fps
Scan type : Progressive
Bits/(Pixel*Frame) : 0.649
Stream size : 41.5 MiB (85%)

Audio
ID : 192 (0xC0)
Format : MPEG Audio
Format version : Version 1
Format profile : Layer 2
Duration : 3mn 31s
Bit rate mode : Constant
Bit rate : 224 Kbps
Channel(s) : 2 channels
Sampling rate : 48.0 KHz
Resolution : 16 bits
Stream size : 5.66 MiB (12%)

General
Complete name : D:\fractal-recursions\furp2.mpg
Format : MPEG-PS
File size : 33.3 MiB
Duration : 1mn 7s
Overall bit rate : 4 133 Kbps

Video
ID : 224 (0xE0)
Format : MPEG Video
Format version : Version 1
Format settings, Matrix : Default
Duration : 1mn 7s
Bit rate mode : Variable
Bit rate : 3 745 Kbps
Width : 352 pixels
Height : 240 pixels
Display aspect ratio : 4:3
Frame rate : 29.970 fps
Scan type : Progressive
Bits/(Pixel*Frame) : 1.479
Stream size : 30.0 MiB (90%)

Audio
ID : 192 (0xC0)
Format : MPEG Audio
Format version : Version 1
Format profile : Layer 2
Duration : 1mn 7s
Bit rate mode : Constant
Bit rate : 224 Kbps
Channel(s) : 2 channels
Sampling rate : 44.1 KHz
Resolution : 16 bits
Stream size : 1.80 MiB (5%)

General
Complete name : D:\fractal-recursions\Thumbs.db
File size : 8.00 KiB

General
Complete name : D:\fractal-recursions\tvdim8vid.mpg
Format : MPEG-PS
File size : 57.6 MiB
Duration : 5mn 45s
Overall bit rate : 1 396 Kbps

Video
ID : 224 (0xE0)
Format : MPEG Video
Format version : Version 1
Format settings, Matrix : Default
Duration : 5mn 45s
Bit rate mode : Constant
Bit rate : 1 116 Kbps
Nominal bit rate : 1 150 Kbps
Width : 320 pixels
Height : 240 pixels
Display aspect ratio : 4:3
Frame rate : 30.000 fps
Scan type : Progressive
Bits/(Pixel*Frame) : 0.485
Stream size : 46.0 MiB (80%)

Audio
ID : 192 (0xC0)
Format : MPEG Audio
Format version : Version 1
Format profile : Layer 2
Duration : 5mn 45s
Bit rate mode : Constant
Bit rate : 224 Kbps
Channel(s) : 2 channels
Sampling rate : 44.1 KHz
Resolution : 16 bits
Stream size : 9.24 MiB (16%)

General
Complete name : D:\fractal-recursions\tvjupitervid (1).mpg
Format : MPEG-PS
File size : 29.9 MiB
Duration : 2mn 59s
Overall bit rate : 1 397 Kbps

Video
ID : 224 (0xE0)
Format : MPEG Video
Format version : Version 1
Format settings, Matrix : Default
Duration : 2mn 59s
Bit rate mode : Constant
Bit rate : 1 117 Kbps
Nominal bit rate : 1 150 Kbps
Width : 352 pixels
Height : 240 pixels
Display aspect ratio : 1.467
Frame rate : 30.000 fps
Scan type : Progressive
Bits/(Pixel*Frame) : 0.441
Stream size : 23.9 MiB (80%)

Audio
ID : 192 (0xC0)
Format : MPEG Audio
Format version : Version 1
Format profile : Layer 2
Duration : 2mn 59s
Bit rate mode : Constant
Bit rate : 224 Kbps
Channel(s) : 2 channels
Sampling rate : 44.1 KHz
Resolution : 16 bits
Stream size : 4.79 MiB (16%)

General
Complete name : D:\fractal-recursions\tvnov15vid.mpg
Format : MPEG-PS
File size : 37.0 MiB
Duration : 3mn 42s
Overall bit rate : 1 396 Kbps

Video
ID : 224 (0xE0)
Format : MPEG Video
Format version : Version 1
Format settings, Matrix : Default
Duration : 3mn 42s
Bit rate mode : Constant
Bit rate : 1 117 Kbps
Nominal bit rate : 1 150 Kbps
Width : 320 pixels
Height : 240 pixels
Display aspect ratio : 4:3
Frame rate : 30.000 fps
Scan type : Progressive
Bits/(Pixel*Frame) : 0.485
Stream size : 29.6 MiB (80%)

Audio
ID : 192 (0xC0)
Format : MPEG Audio
Format version : Version 1
Format profile : Layer 2
Duration : 3mn 42s
Bit rate mode : Constant
Bit rate : 224 Kbps
Channel(s) : 2 channels
Sampling rate : 44.1 KHz
Resolution : 16 bits
Stream size : 5.94 MiB (16%)

General
Complete name : D:\fractal-recursions\tvoscarvid.mpg
Format : MPEG-PS
File size : 56.1 MiB
Duration : 5mn 37s
Overall bit rate : 1 396 Kbps

Video
ID : 224 (0xE0)
Format : MPEG Video
Format version : Version 1
Format settings, Matrix : Default
Duration : 5mn 37s
Bit rate mode : Constant
Bit rate : 1 116 Kbps
Nominal bit rate : 1 150 Kbps
Width : 320 pixels
Height : 240 pixels
Display aspect ratio : 4:3
Frame rate : 30.000 fps
Scan type : Progressive
Bits/(Pixel*Frame) : 0.484
Stream size : 44.9 MiB (80%)

Audio
ID : 192 (0xC0)
Format : MPEG Audio
Format version : Version 1
Format profile : Layer 2
Duration : 5mn 37s
Bit rate mode : Constant
Bit rate : 224 Kbps
Channel(s) : 2 channels
Sampling rate : 44.1 KHz
Resolution : 16 bits
Stream size : 9.01 MiB (16%)

General
Complete name : D:\fractal-recursions\tvsemdtvid.mpg
Format : MPEG-PS
File size : 34.3 MiB
Duration : 3mn 26s
Overall bit rate : 1 397 Kbps

Video
ID : 224 (0xE0)
Format : MPEG Video
Format version : Version 1
Format settings, Matrix : Default
Duration : 3mn 26s
Bit rate mode : Constant
Bit rate : 1 117 Kbps
Nominal bit rate : 1 150 Kbps
Width : 320 pixels
Height : 240 pixels
Display aspect ratio : 4:3
Frame rate : 30.000 fps
Scan type : Progressive
Bits/(Pixel*Frame) : 0.485
Stream size : 27.5 MiB (80%)

Audio
ID : 192 (0xC0)
Format : MPEG Audio
Format version : Version 1
Format profile : Layer 2
Duration : 3mn 26s
Bit rate mode : Constant
Bit rate : 224 Kbps
Channel(s) : 2 channels
Sampling rate : 44.1 KHz
Resolution : 16 bits
Stream size : 5.50 MiB (16%)
Описание: Это надо видеть. Плавные преобразования фракталов. Довольно красиво и напоминает жизнь. А ведь это только математические объекты. Делается это примерно так: берется какаято рекурсивная последовательность(к примеру), находится для неё область сходимости на комплексной плоскости. Подбираются цвета для гармоничного восприятия и в зависимости от скорости расходимости последовательности в данной точке. А потом плавно меняются коэффициенты начальной последовательности и все делается заново. Правда это наверное автоматизированно. Сложность скорее всего с подборе начального выражения, подборе цветов, нужном увеличении и правильной смене коэффициентов.
Кое где есть музыкальное сопровождение под фрактальные звуки.
Два HD ролика.


Видео с http://fractal-recursions.com/
mkhail-jul'en
mkhail-jul'en
че от этого меня вставит?
Spark
Spark
mkhail-jul'en
ну че ты может удивишь своей раздачей?раздачи то нет
Spark
Spark
Раздача есть, просто ты наверное далеко от меня, вот пока и не качает, как люди подойдут, так и тебе достанется
mkhail-jul'en
mkhail-jul'en
тот же принцип и у вселеной
Spark
Spark

Цитата:

Описание: Это надо видеть.
исчерпывающая инфо,.....ты хоть намекнул бы про что твоё видео,я вот ваще не в курсах...

спс
mastaev
mastaev
Spark
Тебя вставит если ты попробуешь вручную посчитать рекурсивную последовательность, да еще и в комплексных переменных... )))
wit
wit

Имя:
E-mail (не обязательно):
Используется для уведомления о правильности ответа.
адм