как разбогатеть как стать богатым

(Drum And Bass / Drumfunk) Seba - Return To Forever [CD] - 2008, FLAC (tracks), lossless

(Combination [CORE060]) Seba - Return To Forever [CD]

Жанр: Drum And Bass / Drumfunk
Год выпуска: 2008
Формат: FLAC (tracks)
Битрейт аудио: lossless
Продолжительность: 57m 03s
Трэклист:
1 External Reality (Shapeshifted) (6:26)
2 Silicone (2:22)
3 Blaze And Fade Out (Album Version) (5:09)
4 As Long As It Takes (5:35)
5 Breaks Selection (Jesper Dahlbäck Remix) (5:36)
6 Special Ops (6:22)
7 Forever (6:04)
8 Day By Night (5:42)
9 Tomorrow (6:19)
10 Crockett (7:26)
Доп. информация:
Exact Audio Copy V0.99 prebeta 4 from 23. January 2008

EAC extraction logfile from 1. October 2008, 22:05

Seba / Return To Forever

Used drive : PHILIPS CDRW/DVD SCB5265 Adapter: 0 ID: 1

Read mode : Secure
Utilize accurate stream : Yes
Defeat audio cache : Yes
Make use of C2 pointers : No

Read offset correction : 6
Overread into Lead-In and Lead-Out : No
Fill up missing offset samples with silence : Yes
Delete leading and trailing silent blocks : No
Null samples used in CRC calculations : Yes
Used interface : Native Win32 interface for Win NT & 2000
Gap handling : Appended to previous track

Used output format : User Defined Encoder
Selected bitrate : 896 kBit/s
Quality : High
Add ID3 tag : No
Command line compressor : C:\Program Files\Exact Audio Copy\FLAC\FLAC.EXE
Additional command line options : -8 -V -T "ARTIST=%a" -T "TITLE=%t" -T "ALBUM=%g" -T "DATE=%y" -T "TRACKNUMBER=%n" -T "GENRE=%m" -T "COMMENT=%e" %s -o %d

TOC of the extracted CD

Track | Start | Length | Start sector | End sector
---------------------------------------------------------
1 | 0:00.00 | 6:26.25 | 0 | 28974
2 | 6:26.25 | 2:22.05 | 28975 | 39629
3 | 8:48.30 | 5:09.41 | 39630 | 62845
4 | 13:57.71 | 5:35.74 | 62846 | 88044
5 | 19:33.70 | 5:36.30 | 88045 | 113274
6 | 25:10.25 | 6:22.17 | 113275 | 141941
7 | 31:32.42 | 6:04.01 | 141942 | 169242
8 | 37:36.43 | 5:42.32 | 169243 | 194924
9 | 43:19.00 | 6:19.71 | 194925 | 223420
10 | 49:38.71 | 7:26.60 | 223421 | 256930

Track 1

Filename E:\Lossless Rips\Return To Forever{Text}1. External reality [Shapeshifted].wav

Pre-gap length 0:00:02.00

Peak level 96.6 %
Track quality 100.0 %
Copy CRC 594880F5
Track not present in AccurateRip database
Copy OK

Track 2

Filename E:\Lossless Rips\Return To Forever{Text}2. Silicone.wav

Peak level 96.6 %
Track quality 100.0 %
Copy CRC AC157289
Track not present in AccurateRip database
Copy OK

Track 3

Filename E:\Lossless Rips\Return To Forever{Text}3. Blaze & Fade Out.wav

Peak level 96.6 %
Track quality 100.0 %
Copy CRC F42E3CFF
Track not present in AccurateRip database
Copy OK

Track 4

Filename E:\Lossless Rips\Return To Forever{Text}4. As Long As It Takes.wav

Peak level 96.6 %
Track quality 100.0 %
Copy CRC 22BAD33B
Track not present in AccurateRip database
Copy OK

Track 5

Filename E:\Lossless Rips\Return To Forever{Text}5. Breaks Selection [Jesper Dahlback Version].wav

Peak level 96.6 %
Track quality 100.0 %
Copy CRC A0157D88
Track not present in AccurateRip database
Copy OK

Track 6

Filename E:\Lossless Rips\Return To Forever{Text}6. Special Ops.wav

Peak level 96.6 %
Track quality 99.9 %
Copy CRC A78E6EBC
Track not present in AccurateRip database
Copy OK

Track 7

Filename E:\Lossless Rips\Return To Forever{Text}7. Forever.wav

Peak level 96.6 %
Track quality 100.0 %
Copy CRC 82900D81
Track not present in AccurateRip database
Copy OK

Track 8

Filename E:\Lossless Rips\Return To Forever{Text}8. Day By Night.wav

Peak level 96.6 %
Track quality 100.0 %
Copy CRC 2E168C97
Track not present in AccurateRip database
Copy OK

Track 9

Filename E:\Lossless Rips\Return To Forever{Text}9. Tomorrow.wav

Peak level 99.9 %
Track quality 100.0 %
Copy CRC 477F21AB
Track not present in AccurateRip database
Copy OK

Track 10

Filename E:\Lossless Rips\Return To Forever\10. Crockett.wav

Peak level 96.6 %
Track quality 100.0 %
Copy CRC C53217CD
Track not present in AccurateRip database
Copy OK

None of the tracks are present in the AccurateRip database

No errors occurred

End of status report
На любителя, имхо.


(Drum And Bass / Drumfunk) Seba - Return To Forever [CD] - 2008, FLAC (tracks), lossless
Бэтмон
Бэтмон
о соратник появился )) крутые весчи тоже раздает)
Red idea
Red idea
Blaze And Fade Out ar
ssserzh999
ssserzh999

ssserzh999 писал(а):

Blaze And Fade Out ar
ee very good ))
Exeeder
Exeeder
Seba ваще мужик!
Ontonshko
Ontonshko

Имя:
E-mail (не обязательно):
Используется для уведомления о правильности ответа.
адм