как разбогатеть как стать богатым

(Punk-Rock) Rise Against - Дискография - 2001-2008, FLAC (tracks), lossless

Rise Against - Дискография - 2001-2008
Страна: USA || Жанр: Punk-Rock || Год выпуска: 2008 || Формат: FLAC (tracks) || Битрейт аудио: lossless


О группе:

Цитата:

Rise Against — американская панк-рок группа, основанная в 1999 году в Чикаго, штат Иллинойс. В текущий состав участников группы входит Тим Макилрот (вокал, гитара), Джо Принсайп (бас-гитара), Брэндон Бранс (ударные) и Зак Блэр (гитара). Группой «Rise Against» к настоящему времени записано четыре альбома, два редких мини-альбома и один DVD.

Успех к группе пришел с альбомами Siren Song of the Counter Culture в 2004 году и The Sufferer & the Witness в 2006 году, песни которых, такие как «Give It All», «Swing Life Away», «Ready to Fall», «Prayer of the Refugee» и «The Good Left Undone», стали хитами. Их пятый по счёту альбом Appeal To Reason вышел 6 октября 2008 года.

Трэклист:
01 Alive And Well
02 My Life Inside Your Heart
03 Great Awakening
04 Six Ways 'til Sunday
05 401 Kill
06 The Art Of Losing
07 Remains Of Summer Memories
08 The Unraveling
09 Reception Fades
10 Stained Glass And Marble
11 Everchanging
12 Sometimes Selling Out Is Giving Up
13 3 Day Weekend
14 1000 Good Intentions
15 Weight Of Time
16 Faint Resemblance
Exact Audio Copy V0.99 prebeta 4 from 23. January 2008
EAC extraction logfile from 11. April 2008, 21:34
Rise Against / The Unraveling
Used drive : PIONEER DVD-RW DVR-111D Adapter: 0 ID: 1
Read mode : Secure
Utilize accurate stream : Yes
Defeat audio cache : Yes
Make use of C2 pointers : No
Read offset correction : 48
Overread into Lead-In and Lead-Out : No
Fill up missing offset samples with silence : Yes
Delete leading and trailing silent blocks : No
Null samples used in CRC calculations : Yes
Used interface : Native Win32 interface for Win NT & 2000
Gap handling : Not detected, thus appended to previous track
Used output format : User Defined Encoder
Selected bitrate : 768 kBit/s
Quality : High
Add ID3 tag : No
Command line compressor : C:\Program Files\Exact Audio Copy\FLAC\FLAC.EXE
Additional command line options : -V -8 -T "artist=%a" -T "title=%t" -T "album=%g" -T "date=%y" -T "tracknumber=%n" -T "genre=%m" %s
TOC of the extracted CD
Track | Start | Length | Start sector | End sector
---------------------------------------------------------
1 | 0:00.00 | 2:06.20 | 0 | 9469
2 | 2:06.20 | 3:02.06 | 9470 | 23125
3 | 5:08.26 | 1:35.49 | 23126 | 30299
4 | 6:44.00 | 2:36.13 | 30300 | 42012
5 | 9:20.13 | 3:19.02 | 42013 | 56939
6 | 12:39.15 | 1:50.46 | 56940 | 65235
7 | 14:29.61 | 1:17.19 | 65236 | 71029
8 | 15:47.05 | 3:12.45 | 71030 | 85474
9 | 18:59.50 | 2:10.11 | 85475 | 95235
10 | 21:09.61 | 1:36.24 | 95236 | 102459
11 | 22:46.10 | 3:47.07 | 102460 | 119491
12 | 26:33.17 | 1:09.37 | 119492 | 124703
13 | 27:42.54 | 1:03.05 | 124704 | 129433
14 | 28:45.59 | 3:07.51 | 129434 | 143509
15 | 31:53.35 | 2:00.22 | 143510 | 152531
16 | 33:53.57 | 2:51.04 | 152532 | 165360
Track 1
Filename J:\Music\Lossless\Rise Against\The Unraveling{Text}1 Alive And Well.wav
Peak level 98.8 %
Track quality 100.0 %
Copy CRC DD681074
Cannot be verified as accurate (confidence 2) [AA738E41], AccurateRip returned [81A14831]
Copy OK
Track 2
Filename J:\Music\Lossless\Rise Against\The Unraveling{Text}2 My Life Inside Your Heart.wav
Peak level 98.8 %
Track quality 100.0 %
Copy CRC 3E3EAD45
Cannot be verified as accurate (confidence 2) [F38F6507], AccurateRip returned [D41B7751]
Copy OK
Track 3
Filename J:\Music\Lossless\Rise Against\The Unraveling{Text}3 Great Awakening.wav
Peak level 98.8 %
Track quality 99.8 %
Copy CRC 3D3892F6
Cannot be verified as accurate (confidence 2) [FF0D59A9], AccurateRip returned [9D8EF940]
Copy OK
Track 4
Filename J:\Music\Lossless\Rise Against\The Unraveling{Text}4 Six Ways 'til Sunday.wav
Peak level 98.8 %
Track quality 100.0 %
Copy CRC 9BE1AE43
Cannot be verified as accurate (confidence 2) [00657B14], AccurateRip returned [BF6DC405]
Copy OK
Track 5
Filename J:\Music\Lossless\Rise Against\The Unraveling{Text}5 401 Kill.wav
Peak level 98.8 %
Track quality 100.0 %
Copy CRC DF602327
Cannot be verified as accurate (confidence 2) [F5E0AB3C], AccurateRip returned [CCB480FE]
Copy OK
Track 6
Filename J:\Music\Lossless\Rise Against\The Unraveling{Text}6 The Art Of Losing.wav
Peak level 98.8 %
Track quality 100.0 %
Copy CRC 6F9F4DAF
Cannot be verified as accurate (confidence 2) [C4281DCC], AccurateRip returned [769151E1]
Copy OK
Track 7
Filename J:\Music\Lossless\Rise Against\The Unraveling{Text}7 Remains Of Summer Memories.wav
Peak level 98.8 %
Track quality 100.0 %
Copy CRC 89E8A05F
Cannot be verified as accurate (confidence 2) [842C659C], AccurateRip returned [464621D0]
Copy OK
Track 8
Filename J:\Music\Lossless\Rise Against\The Unraveling{Text}8 The Unraveling.wav
Peak level 98.8 %
Track quality 99.9 %
Copy CRC 1D534E51
Cannot be verified as accurate (confidence 2) [3E6680E8], AccurateRip returned [B4E88EDE]
Copy OK
Track 9
Filename J:\Music\Lossless\Rise Against\The Unraveling{Text}9 Reception Fades.wav
Peak level 98.8 %
Track quality 99.9 %
Copy CRC E3199D62
Cannot be verified as accurate (confidence 2) [06C971A7], AccurateRip returned [D0221C84]
Copy OK
Track 10
Filename J:\Music\Lossless\Rise Against\The Unraveling\10 Stained Glass And Marble.wav
Peak level 98.8 %
Track quality 99.8 %
Copy CRC B2D68F28
Track not present in AccurateRip database
Copy OK
Track 11
Filename J:\Music\Lossless\Rise Against\The Unraveling\11 Everchanging.wav
Peak level 98.8 %
Track quality 100.0 %
Copy CRC 197595BB
Track not present in AccurateRip database
Copy OK
Track 12
Filename J:\Music\Lossless\Rise Against\The Unraveling\12 Sometimes Selling Out Is Giving Up.wav
Peak level 98.8 %
Track quality 100.0 %
Copy CRC 6C848DC3
Cannot be verified as accurate (confidence 2) [93CC5A49], AccurateRip returned [37B6AC47]
Copy OK
Track 13
Filename J:\Music\Lossless\Rise Against\The Unraveling\13 3 Day Weekend.wav
Peak level 98.8 %
Track quality 100.0 %
Copy CRC EF0D36E3
Cannot be verified as accurate (confidence 2) [BC47A6C1], AccurateRip returned [71935D6A]
Copy OK
Track 14
Filename J:\Music\Lossless\Rise Against\The Unraveling\14 1000 Good Intentions.wav
Peak level 98.8 %
Track quality 100.0 %
Copy CRC 83CDCE42
Cannot be verified as accurate (confidence 2) [E9D6A719], AccurateRip returned [9B2898C0]
Copy OK
Track 15
Filename J:\Music\Lossless\Rise Against\The Unraveling\15 Weight Of Time.wav
Peak level 98.8 %
Track quality 100.0 %
Copy CRC 54DBBF2A
Cannot be verified as accurate (confidence 2) [108AEEB4], AccurateRip returned [3B3030DC]
Copy OK
Track 16
Filename J:\Music\Lossless\Rise Against\The Unraveling\16 Faint Resemblance.wav
Peak level 98.8 %
Track quality 100.0 %
Copy CRC BA66388E
Cannot be verified as accurate (confidence 2) [4877BFC1], AccurateRip returned [D2C39CA8]
Copy OK
14 track(s) could not be verified as accurate
2 track(s) not present in the AccurateRip database
No tracks could be verified as accurate
You may have a different pressing from the one(s) in the database
No errors occurred
End of status report
01 Alive And Well
02 My Life Inside Your Heart
03 Great Awakening
04 Six Ways 'til Sunday
05 401 Kill
06 The Art Of Losing
07 Remains Of Summer Memories
08 The Unraveling
09 Reception Fades
10 Stained Glass And Marble
11 Everchanging
12 Sometimes Selling Out Is Giving Up
13 3 Day Weekend
14 1000 Good Intentions
15 Weight Of Time
16 Faint Resemblance
17 - Join the Ranks
18 - Gethsemane
EAC extraction logfile from 3. August 2006, 17:28 for CD
Rise Against / The Unraveling (Remixed and Remastered)
Used drive : LITEON DVD-ROM LTD163 Adapter: 0 ID: 1
Read mode : Secure with C2, accurate stream, NO disable cache
Read offset correction : 594
Overread into Lead-In and Lead-Out : No
Used output format : Internal WAV Routines
44.100 Hz; 16 Bit; Stereo
Other options :
Fill up missing offset samples with silence : Yes
Delete leading and trailing silent blocks : No
Installed external ASPI interface
Track 1
Filename F:\Oink Rips\Rise Against - The Unraveling (2005 Remaster){Text}1 - Rise Against - The Unraveling (Remixed and Remastered) - Alive and Well.wav
Pre-gap length 0:00:02.00
Missing samples
Peak level 0.0 %
Track quality 99.0 %
Copy finished
Track 2
Copy aborted
Track 3
Copy aborted
Track 4
Copy aborted
Track 5
Copy aborted
Track 6
Copy aborted
Track 7
Copy aborted
Track 8
Copy aborted
Track 9
Copy aborted
Track 10
Copy aborted
Track 11
Copy aborted
Track 12
Copy aborted
Track 13
Copy aborted
Track 14
Copy aborted
Track 15
Copy aborted
Track 16
Copy aborted
Track 17
Copy aborted
Track 18
Copy aborted
There were errors
End of status report
------------------------------------------------------------
EAC extraction logfile from 3. August 2006, 17:36 for CD
Rise Against / The Unraveling (Remixed and Remastered)
Used drive : LITEON DVD-ROM LTD163 Adapter: 0 ID: 1
Read mode : Secure with C2, accurate stream, NO disable cache
Read offset correction : 594
Overread into Lead-In and Lead-Out : No
Used output format : Internal WAV Routines
44.100 Hz; 16 Bit; Stereo
Other options :
Fill up missing offset samples with silence : Yes
Delete leading and trailing silent blocks : No
Installed external ASPI interface
Track 1
Filename F:\Oink Rips\Rise Against - The Unraveling (2005 Remaster){Text}1 - Rise Against - The Unraveling (Remixed and Remastered) - Alive and Well.wav
Pre-gap length 0:00:02.00
Peak level 96.6 %
Track quality 97.9 %
Test CRC 27B73337
Copy CRC 27B73337
Copy OK
Track 2
Filename F:\Oink Rips\Rise Against - The Unraveling (2005 Remaster){Text}2 - Rise Against - The Unraveling (Remixed and Remastered) - My Life Inside Your Heart.wav
Peak level 96.6 %
Track quality 100.0 %
Test CRC F1238FCD
Copy CRC F1238FCD
Copy OK
Track 3
Filename F:\Oink Rips\Rise Against - The Unraveling (2005 Remaster){Text}3 - Rise Against - The Unraveling (Remixed and Remastered) - Great Awakening.wav
Peak level 96.6 %
Track quality 100.0 %
Test CRC ACEF2F80
Copy CRC ACEF2F80
Copy OK
Track 4
Filename F:\Oink Rips\Rise Against - The Unraveling (2005 Remaster){Text}4 - Rise Against - The Unraveling (Remixed and Remastered) - Six Ways 'Til Sunday.wav
Peak level 96.6 %
Track quality 100.0 %
Test CRC EABDF3B8
Copy CRC EABDF3B8
Copy OK
Track 5
Filename F:\Oink Rips\Rise Against - The Unraveling (2005 Remaster){Text}5 - Rise Against - The Unraveling (Remixed and Remastered) - 401 Kill.wav
Peak level 96.6 %
Track quality 100.0 %
Test CRC E0640614
Copy CRC E0640614
Copy OK
Track 6
Filename F:\Oink Rips\Rise Against - The Unraveling (2005 Remaster){Text}6 - Rise Against - The Unraveling (Remixed and Remastered) - The Art of Losing.wav
Peak level 96.6 %
Track quality 100.0 %
Test CRC 5E318497
Copy CRC 5E318497
Copy OK
Track 7
Filename F:\Oink Rips\Rise Against - The Unraveling (2005 Remaster){Text}7 - Rise Against - The Unraveling (Remixed and Remastered) - Remains of Summer Memories.wav
Peak level 96.6 %
Track quality 100.0 %
Test CRC 7AFC2F4C
Copy CRC 7AFC2F4C
Copy OK
Track 8
Filename F:\Oink Rips\Rise Against - The Unraveling (2005 Remaster){Text}8 - Rise Against - The Unraveling (Remixed and Remastered) - The Unraveling.wav
Peak level 96.6 %
Track quality 100.0 %
Test CRC 08A2A934
Copy CRC 08A2A934
Copy OK
Track 9
Filename F:\Oink Rips\Rise Against - The Unraveling (2005 Remaster){Text}9 - Rise Against - The Unraveling (Remixed and Remastered) - Reception Fades.wav
Peak level 96.6 %
Track quality 100.0 %
Test CRC EA1A790A
Copy CRC EA1A790A
Copy OK
Track 10
Filename F:\Oink Rips\Rise Against - The Unraveling (2005 Remaster)\10 - Rise Against - The Unraveling (Remixed and Remastered) - Stained Glass and Marble.wav
Peak level 96.6 %
Track quality 100.0 %
Test CRC 46899AA4
Copy CRC 46899AA4
Copy OK
Track 11
Filename F:\Oink Rips\Rise Against - The Unraveling (2005 Remaster)\11 - Rise Against - The Unraveling (Remixed and Remastered) - Everchanging.wav
Peak level 96.6 %
Track quality 100.0 %
Test CRC C90ADA87
Copy CRC C90ADA87
Copy OK
Track 12
Filename F:\Oink Rips\Rise Against - The Unraveling (2005 Remaster)\12 - Rise Against - The Unraveling (Remixed and Remastered) - Sometimes Selling Out is Giving Up.wav
Peak level 96.6 %
Track quality 100.0 %
Test CRC 114A796F
Copy CRC 114A796F
Copy OK
Track 13
Filename F:\Oink Rips\Rise Against - The Unraveling (2005 Remaster)\13 - Rise Against - The Unraveling (Remixed and Remastered) - 3 Day Weekend.wav
Peak level 96.6 %
Track quality 100.0 %
Test CRC 84B21FA9
Copy CRC 84B21FA9
Copy OK
Track 14
Filename F:\Oink Rips\Rise Against - The Unraveling (2005 Remaster)\14 - Rise Against - The Unraveling (Remixed and Remastered) - 1000 Good Intentions.wav
Peak level 100.0 %
Track quality 100.0 %
Test CRC 3F36517C
Copy CRC 3F36517C
Copy OK
Track 15
Filename F:\Oink Rips\Rise Against - The Unraveling (2005 Remaster)\15 - Rise Against - The Unraveling (Remixed and Remastered) - Weight of Time.wav
Peak level 100.0 %
Track quality 100.0 %
Test CRC 7B1ED1D4
Copy CRC 7B1ED1D4
Copy OK
Track 16
Filename F:\Oink Rips\Rise Against - The Unraveling (2005 Remaster)\16 - Rise Against - The Unraveling (Remixed and Remastered) - Faint Resemblance.wav
Peak level 96.6 %
Track quality 100.0 %
Test CRC E9359E6B
Copy CRC E9359E6B
Copy OK
Track 17
Filename F:\Oink Rips\Rise Against - The Unraveling (2005 Remaster)\17 - Rise Against - The Unraveling (Remixed and Remastered) - Join the Ranks.wav
Peak level 96.6 %
Track quality 100.0 %
Test CRC D845C553
Copy CRC D845C553
Copy OK
Track 18
Filename F:\Oink Rips\Rise Against - The Unraveling (2005 Remaster)\18 - Rise Against - The Unraveling (Remixed and Remastered) - Gethsemane.wav
Peak level 96.6 %
Track quality 100.0 %
Test CRC A290E697
Copy CRC A290E697
Copy OK
No errors occured
End of status report
01 Black Masks & Gasoline
02 Heaven Knows
03 Dead Ringer
04 Halfway There
05 Like the Angel
06 Voices Off Camera
07 Blood Red, White & Blue
08 Broken English
09 Last Chance Blueprint
10 To the Core
11 Torches
12 Amber Changing
13 Anyway You Want It
14 Generation Lost
15 Gethsamane
16 Obstructed View
EAC extraction logfile from 5. August 2006, 7:48 for CD
Rise Against / Revolutions Per Minute
Used drive : LITE-ON DVDRW SOHW-1673S Adapter: 1 ID: 0
Read mode : Secure with NO C2, accurate stream, disable cache
Read offset correction : 0
Overread into Lead-In and Lead-Out : No
Used output format : C:\Program Files\FLAC\flac.exe (User Defined Encoder)
128 kBit/s
Additional command line options : -V -8 -T "artist=%a" -T "title=%t" -T "album=%g" -T "date=%y" -T "tracknumber=%n" -T "genre=%m" %s
Other options :
Fill up missing offset samples with silence : Yes
Delete leading and trailing silent blocks : No
Native Win32 interface for Win NT & 2000
Track 1
Filename E:\My Music\FLAC\Rise Against - Revolutions Per Minute{Text}1 - Rise Against - Revolutions Per Minute - Black Masks & Gasoline.wav
Pre-gap length 0:00:02.00
Peak level 96.6 %
Track quality 100.0 %
Test CRC AF6F9B79
Copy CRC AF6F9B79
Copy OK
Track 2
Filename E:\My Music\FLAC\Rise Against - Revolutions Per Minute{Text}2 - Rise Against - Revolutions Per Minute - Heaven Knows.wav
Peak level 96.6 %
Track quality 100.0 %
Test CRC E284E164
Copy CRC E284E164
Copy OK
Track 3
Filename E:\My Music\FLAC\Rise Against - Revolutions Per Minute{Text}3 - Rise Against - Revolutions Per Minute - Dead Ringer.wav
Peak level 96.6 %
Track quality 100.0 %
Test CRC 67DF59BD
Copy CRC 67DF59BD
Copy OK
Track 4
Filename E:\My Music\FLAC\Rise Against - Revolutions Per Minute{Text}4 - Rise Against - Revolutions Per Minute - Halfway There.wav
Peak level 96.6 %
Track quality 100.0 %
Test CRC 96A45371
Copy CRC 96A45371
Copy OK
Track 5
Filename E:\My Music\FLAC\Rise Against - Revolutions Per Minute{Text}5 - Rise Against - Revolutions Per Minute - Like The Angel.wav
Peak level 96.6 %
Track quality 100.0 %
Test CRC 5D4B7CC1
Copy CRC 5D4B7CC1
Copy OK
Track 6
Filename E:\My Music\FLAC\Rise Against - Revolutions Per Minute{Text}6 - Rise Against - Revolutions Per Minute - Voices Off Camera.wav
Peak level 96.6 %
Track quality 100.0 %
Test CRC 2D7EDC56
Copy CRC 2D7EDC56
Copy OK
Track 7
Filename E:\My Music\FLAC\Rise Against - Revolutions Per Minute{Text}7 - Rise Against - Revolutions Per Minute - Blood Red, White, & Blue.wav
Peak level 96.6 %
Track quality 100.0 %
Test CRC C4D64B05
Copy CRC C4D64B05
Copy OK
Track 8
Filename E:\My Music\FLAC\Rise Against - Revolutions Per Minute{Text}8 - Rise Against - Revolutions Per Minute - Broken English.wav
Peak level 96.6 %
Track quality 100.0 %
Test CRC 085AB1AB
Copy CRC 085AB1AB
Copy OK
Track 9
Filename E:\My Music\FLAC\Rise Against - Revolutions Per Minute{Text}9 - Rise Against - Revolutions Per Minute - Last Chance Blueprint.wav
Peak level 96.6 %
Track quality 100.0 %
Test CRC CEEC8B87
Copy CRC CEEC8B87
Copy OK
Track 10
Filename E:\My Music\FLAC\Rise Against - Revolutions Per Minute\10 - Rise Against - Revolutions Per Minute - To The Core.wav
Peak level 96.6 %
Track quality 100.0 %
Test CRC F971A0B1
Copy CRC F971A0B1
Copy OK
Track 11
Filename E:\My Music\FLAC\Rise Against - Revolutions Per Minute\11 - Rise Against - Revolutions Per Minute - Torches.wav
Peak level 96.6 %
Track quality 99.9 %
Test CRC 32F85705
Copy CRC 32F85705
Copy OK
Track 12
Filename E:\My Music\FLAC\Rise Against - Revolutions Per Minute\12 - Rise Against - Revolutions Per Minute - Amber Changing.wav
Peak level 96.6 %
Track quality 99.9 %
Test CRC 421EEFB8
Copy CRC 421EEFB8
Copy OK
Track 13
Filename E:\My Music\FLAC\Rise Against - Revolutions Per Minute\13 - Rise Against - Revolutions Per Minute - Any Way You Want It.wav
Pre-gap length 0:00:44.22
Peak level 96.6 %
Track quality 99.9 %
Test CRC CA616157
Copy CRC CA616157
Copy OK
No errors occured
End of status report
01 State Of The Union
02 First Drop, The
03 Life Less Frightening
04 Paper Wings
05 Blood To Bleed
06 To Them These Streets Belong
07 Tip The Scales
08 Anywhere But Here
09 Give It All
10. Dancing For Rain
11. Swing Life Away
12. Rumors Of My Demise Have Been Greatly Exaggerated
EAC extraction logfile from 3. December 2006, 22:20 for CD
Rise Against / Siren Song Of The Counter Culture
Used drive : Optiarc DVD+-RW ND-3570A Adapter: 0 ID: 0
Read mode : Secure with NO C2, accurate stream, disable cache
Read offset correction : 48
Overread into Lead-In and Lead-Out : No
Used output format : C:\Program Files\FLAC\flac.exe (User Defined Encoder)
192 kBit/s
Additional command line options : -V -8 -T "artist=%a" -T "title=%t" -T "album=%g" -T "date=%y" -T "tracknumber=%n" -T "genre=%m" %s
Other options :
Fill up missing offset samples with silence : Yes
Delete leading and trailing silent blocks : No
Native Win32 interface for Win NT & 2000
Track 1
Filename Z:\Ripped CD's\Rise Against\Siren Song Of The Counter Culture{Text}1 - State Of The Union.wav
Pre-gap length 0:00:02.00
Peak level 99.9 %
Track quality 99.9 %
Test CRC B8C88F2F
Copy CRC B8C88F2F
Copy OK
Track 2
Filename Z:\Ripped CD's\Rise Against\Siren Song Of The Counter Culture{Text}2 - The First Drop.wav
Peak level 100.0 %
Track quality 100.0 %
Test CRC 26E07918
Copy CRC 26E07918
Copy OK
Track 3
Filename Z:\Ripped CD's\Rise Against\Siren Song Of The Counter Culture{Text}3 - Life Less Frightening.wav
Peak level 100.0 %
Track quality 100.0 %
Test CRC 2C80D81C
Copy CRC 2C80D81C
Copy OK
Track 4
Filename Z:\Ripped CD's\Rise Against\Siren Song Of The Counter Culture{Text}4 - Paper Wings.wav
Peak level 99.9 %
Track quality 100.0 %
Test CRC 8E809CD0
Copy CRC 8E809CD0
Copy OK
Track 5
Filename Z:\Ripped CD's\Rise Against\Siren Song Of The Counter Culture{Text}5 - Blood To Bleed.wav
Peak level 99.9 %
Track quality 100.0 %
Test CRC 155A23C5
Copy CRC 155A23C5
Copy OK
Track 6
Filename Z:\Ripped CD's\Rise Against\Siren Song Of The Counter Culture{Text}6 - To Them These Streets Belong.wav
Peak level 100.0 %
Track quality 100.0 %
Test CRC A3465497
Copy CRC A3465497
Copy OK
Track 7
Filename Z:\Ripped CD's\Rise Against\Siren Song Of The Counter Culture{Text}7 - Tip The Scales.wav
Peak level 99.9 %
Track quality 100.0 %
Test CRC AD60FF29
Copy CRC AD60FF29
Copy OK
Track 8
Filename Z:\Ripped CD's\Rise Against\Siren Song Of The Counter Culture{Text}8 - Anywhere But Here.wav
Peak level 99.9 %
Track quality 99.9 %
Test CRC 5F43B3BE
Copy CRC 5F43B3BE
Copy OK
Track 9
Filename Z:\Ripped CD's\Rise Against\Siren Song Of The Counter Culture{Text}9 - Give It All.wav
Peak level 99.9 %
Track quality 100.0 %
Test CRC 16552DB4
Copy CRC 16552DB4
Copy OK
Track 10
Filename Z:\Ripped CD's\Rise Against\Siren Song Of The Counter Culture\10 - Dancing For Rain.wav
Peak level 99.9 %
Track quality 100.0 %
Test CRC B8628FE9
Copy CRC B8628FE9
Copy OK
Track 11
Filename Z:\Ripped CD's\Rise Against\Siren Song Of The Counter Culture\11 - Swing Life Away.wav
Peak level 99.9 %
Track quality 100.0 %
Test CRC 1AA02831
Copy CRC 1AA02831
Copy OK
Track 12
Filename Z:\Ripped CD's\Rise Against\Siren Song Of The Counter Culture\12 - Rumors Of My Demise Have Been Greatly Exaggerated.wav
Peak level 99.9 %
Track quality 100.0 %
Test CRC 2DB87692
Copy CRC 2DB87692
Copy OK
No errors occured
End of status report
01 Chamber The Cartridge
02 Injection
03 Ready To Fall
04 Bricks
05 Under The Knife
06 Prayer Of The Refugee
07 Drones
08 The Approaching Curve
09 Worth Dying For
10 Behind Closed Doors
11 Roadside
12 The Good Left Undone
13 Survive
14 Boy's No Good
EAC extraction logfile from 7. December 2006, 9:02 for CD
Rise Against / The Suffer and The Witness
Used drive : ASUS DRW-1608P2S Adapter: 1 ID: 1
Read mode : Secure with NO C2, accurate stream, disable cache
Combined read/write offset correction : 0
Overread into Lead-In and Lead-Out : No
Used output format : E:\Program Files\FLAC\flac.exe (User Defined Encoder)
224 kBit/s
Additional command line options : -6 -V -T "artist=%a" -T "title=%t" -T "album=%g" -T "date=%y" -T "tracknumber=%n" -T "genre=%m" -T comment="%e" -T "comment=EAC (Secure Mode)" %s
Other options :
Fill up missing offset samples with silence : Yes
Delete leading and trailing silent blocks : No
Installed external ASPI interface
Track 1
Filename E:\Documents and Settings\Adam\Desktop\Rise Against - The Suffer and The Witness\Rise Against - The Suffer and The Witness - 01 - Chamber the Cartridge.wav
Pre-gap length 0:00:02.00
Peak level 96.6 %
Track quality 100.0 %
Test CRC B8FF567E
Copy CRC B8FF567E
Copy OK
Track 2
Filename E:\Documents and Settings\Adam\Desktop\Rise Against - The Suffer and The Witness\Rise Against - The Suffer and The Witness - 02 - Injection.wav
Pre-gap length 0:00:00.16
Peak level 100.0 %
Track quality 99.9 %
Test CRC 07018FC3
Copy CRC 07018FC3
Copy OK
Track 3
Filename E:\Documents and Settings\Adam\Desktop\Rise Against - The Suffer and The Witness\Rise Against - The Suffer and The Witness - 03 - Ready to Fall.wav
Pre-gap length 0:00:00.08
Peak level 96.6 %
Track quality 100.0 %
Test CRC DA70533F
Copy CRC DA70533F
Copy OK
Track 4
Filename E:\Documents and Settings\Adam\Desktop\Rise Against - The Suffer and The Witness\Rise Against - The Suffer and The Witness - 04 - Bricks.wav
Pre-gap length 0:00:00.42
Peak level 98.0 %
Track quality 100.0 %
Test CRC 6217662D
Copy CRC 6217662D
Copy OK
Track 5
Filename E:\Documents and Settings\Adam\Desktop\Rise Against - The Suffer and The Witness\Rise Against - The Suffer and The Witness - 05 - Under The Knife.wav
Pre-gap length 0:00:00.22
Peak level 96.9 %
Track quality 100.0 %
Test CRC 84FBAA48
Copy CRC 84FBAA48
Copy OK
Track 6
Filename E:\Documents and Settings\Adam\Desktop\Rise Against - The Suffer and The Witness\Rise Against - The Suffer and The Witness - 06 - Prayer of the Refugee.wav
Pre-gap length 0:00:00.17
Peak level 96.6 %
Track quality 100.0 %
Test CRC 2FAE8ACF
Copy CRC 2FAE8ACF
Copy OK
Track 7
Filename E:\Documents and Settings\Adam\Desktop\Rise Against - The Suffer and The Witness\Rise Against - The Suffer and The Witness - 07 - Drones.wav
Pre-gap length 0:00:00.06
Peak level 97.1 %
Track quality 100.0 %
Test CRC 59ED4B77
Copy CRC 59ED4B77
Copy OK
Track 8
Filename E:\Documents and Settings\Adam\Desktop\Rise Against - The Suffer and The Witness\Rise Against - The Suffer and The Witness - 08 - The Approaching Curve.wav
Pre-gap length 0:00:00.40
Peak level 96.6 %
Track quality 100.0 %
Test CRC 4EA5E0F7
Copy CRC 4EA5E0F7
Copy OK
Track 9
Filename E:\Documents and Settings\Adam\Desktop\Rise Against - The Suffer and The Witness\Rise Against - The Suffer and The Witness - 09 - Worth Dying For.wav
Pre-gap length 0:00:00.26
Peak level 97.4 %
Track quality 100.0 %
Test CRC 3D9C8DCD
Copy CRC 3D9C8DCD
Copy OK
Track 10
Filename E:\Documents and Settings\Adam\Desktop\Rise Against - The Suffer and The Witness\Rise Against - The Suffer and The Witness - 10 - Behing Closed Doors.wav
Pre-gap length 0:00:00.20
Peak level 96.6 %
Track quality 100.0 %
Test CRC 382D55E6
Copy CRC 382D55E6
Copy OK
Track 11
Filename E:\Documents and Settings\Adam\Desktop\Rise Against - The Suffer and The Witness\Rise Against - The Suffer and The Witness - 11 - Roadside.wav
Pre-gap length 0:00:00.24
Peak level 96.6 %
Track quality 100.0 %
Test CRC 4ED0EDFB
Copy CRC 4ED0EDFB
Copy OK
Track 12
Filename E:\Documents and Settings\Adam\Desktop\Rise Against - The Suffer and The Witness\Rise Against - The Suffer and The Witness - 12 - The Good Left Undone.wav
Pre-gap length 0:00:00.09
Peak level 96.6 %
Track quality 100.0 %
Test CRC 1DDD412A
Copy CRC 1DDD412A
Copy OK
Track 13
Filename E:\Documents and Settings\Adam\Desktop\Rise Against - The Suffer and The Witness\Rise Against - The Suffer and The Witness - 13 - Survive.wav
Pre-gap length 0:01:09.62
Peak level 96.6 %
Track quality 99.9 %
Test CRC B317BB8A
Copy CRC B317BB8A
Copy OK
Track 14
Filename E:\Documents and Settings\Adam\Desktop\Rise Against - The Suffer and The Witness\Rise Against - The Suffer and The Witness - 14 - Boy's No Good.wav
Pre-gap length 0:00:00.16
Peak level 96.6 %
Track quality 100.0 %
Test CRC 6FE8FB7E
Copy CRC 6FE8FB7E
Copy OK
No errors occured
End of status report
01 Boys No Good
02 Fix Me
03 Obstructed View
04 But Tonight We Dance
05 Nervous Breakdown
EAC extraction logfile from 8. July 2007, 17:25 for CD
Rise Against / This is Noise
Used drive : MATSHITADVD-RAM UJ-820S Adapter: 1 ID: 0
Read mode : Secure with NO C2, accurate stream, disable cache
Read offset correction : 102
Overread into Lead-In and Lead-Out : No
Used output format : C:\Program Files\Exact Audio Copy\flac-1.1.4-win\bin\flac.exe (User Defined Encoder)
320 kBit/s
Additional command line options : -V -5 -T "artist=%a" -T "title=%t" -T "album=%g" -T "date=%y" -T "tracknumber=%n" -T "genre=%m" %s
Other options :
Fill up missing offset samples with silence : Yes
Delete leading and trailing silent blocks : No
Installed external ASPI interface
Track 1
Filename C:\Documents and Settings\Dave Schulz\My Documents\Azureus Downloads\Rise Against - This is Noise(FLAC){Text}1 - Rise Against - Boys No Good.wav
Pre-gap length 0:00:02.00
Peak level 96.6 %
Track quality 100.0 %
Test CRC E0ED7C12
Copy CRC E0ED7C12
Copy OK
Track 2
Filename C:\Documents and Settings\Dave Schulz\My Documents\Azureus Downloads\Rise Against - This is Noise(FLAC){Text}2 - Rise Against - Fix Me.wav
Pre-gap length 0:00:00.98
Peak level 99.9 %
Track quality 100.0 %
Test CRC 1193F8D4
Copy CRC 1193F8D4
Copy OK
Track 3
Filename C:\Documents and Settings\Dave Schulz\My Documents\Azureus Downloads\Rise Against - This is Noise(FLAC){Text}3 - Rise Against - Obstructed View.wav
Pre-gap length 0:00:00.98
Peak level 99.9 %
Track quality 100.0 %
Test CRC 049237FB
Copy CRC 049237FB
Copy OK
Track 4
Filename C:\Documents and Settings\Dave Schulz\My Documents\Azureus Downloads\Rise Against - This is Noise(FLAC){Text}4 - Rise Against - But Tonight We Dance.wav
Pre-gap length 0:00:00.98
Peak level 96.4 %
Track quality 100.0 %
Test CRC 297A67BA
Copy CRC 297A67BA
Copy OK
Track 5
Filename C:\Documents and Settings\Dave Schulz\My Documents\Azureus Downloads\Rise Against - This is Noise(FLAC){Text}5 - Rise Against - Nervous Breakdown.wav
Pre-gap length 0:00:01.00
Peak level 93.5 %
Track quality 100.0 %
Test CRC 4E43BC1E
Copy CRC 4E43BC1E
Copy OK
No errors occured
End of status report
01 Collapse (Post-Amerika)
02 Long Forgotten Sons
03 Re-Education (Through Labor)
04 The Dirt Whispered
05 Kotov Syndrome
06 From Heads University
07 The Strength To Go On
08 Audience Of One
09 Entertainment
10 Hero Of War
11 Savior
12 Hairline Fracture
13 Whereabouts Unknown
Exact Audio Copy V0.99 prebeta 4 from 23. January 2008
EAC extraction logfile from 1. October 2008, 18:44
Rise Against / Appeal To Reason
Used drive : PIONEER DVR-113NP Adapter: 0 ID: 0
Read mode : Secure
Utilize accurate stream : Yes
Defeat audio cache : No
Make use of C2 pointers : Yes
Read offset correction : 6
Overread into Lead-In and Lead-Out : No
Fill up missing offset samples with silence : Yes
Delete leading and trailing silent blocks : No
Null samples used in CRC calculations : Yes
Used interface : Native Win32 interface for Win NT & 2000
Gap handling : Appended to previous track
Used output format : User Defined Encoder
Selected bitrate : 768 kBit/s
Quality : High
Add ID3 tag : No
Command line compressor : C:\Program Files\Exact Audio Copy\FLAC\FLAC.EXE
Additional command line options : -V -8 -T "artist=%a" -T "title=%t" -T "album=%g" -T "date=%y" -T "tracknumber=%n" -T "genre=%m" %s
TOC of the extracted CD
Track | Start | Length | Start sector | End sector
---------------------------------------------------------
1 | 0:00.00 | 3:19.00 | 0 | 14924
2 | 3:19.00 | 4:01.42 | 14925 | 33041
3 | 7:20.42 | 3:42.34 | 33042 | 49725
4 | 11:03.01 | 3:09.06 | 49726 | 63906
5 | 14:12.07 | 3:04.57 | 63907 | 77763
6 | 17:16.64 | 3:42.28 | 77764 | 94441
7 | 20:59.17 | 3:27.02 | 94442 | 109968
8 | 24:26.19 | 4:05.36 | 109969 | 128379
9 | 28:31.55 | 3:34.50 | 128380 | 144479
10 | 32:06.30 | 4:13.06 | 144480 | 163460
11 | 36:19.36 | 4:02.21 | 163461 | 181631
12 | 40:21.57 | 4:02.42 | 181632 | 199823
13 | 44:24.24 | 4:02.32 | 199824 | 218005
Track 1
Filename C:\Documents and Settings\Owner\Desktop\Rise_Against-Appeal_To_Reason-2008{Text}1-Rise_Against-Collapse_(Post-Amerika).wav
Pre-gap length 0:00:02.00
Peak level 100.0 %
Track quality 100.0 %
Test CRC 7ECD616D
Copy CRC 7ECD616D
Copy OK
Track 2
Filename C:\Documents and Settings\Owner\Desktop\Rise_Against-Appeal_To_Reason-2008{Text}2-Rise_Against-Long_Forgotton_Sons.wav
Peak level 100.0 %
Track quality 100.0 %
Test CRC 1349C4E7
Copy CRC 1349C4E7
Copy OK
Track 3
Filename C:\Documents and Settings\Owner\Desktop\Rise_Against-Appeal_To_Reason-2008{Text}3-Rise_Against-Re-Education_(Through_Labor).wav
Peak level 100.0 %
Track quality 99.9 %
Test CRC FEFECFB8
Copy CRC FEFECFB8
Copy OK
Track 4
Filename C:\Documents and Settings\Owner\Desktop\Rise_Against-Appeal_To_Reason-2008{Text}4-Rise_Against-The_Dirt_Whispered.wav
Peak level 100.0 %
Track quality 100.0 %
Test CRC B676B882
Copy CRC B676B882
Copy OK
Track 5
Filename C:\Documents and Settings\Owner\Desktop\Rise_Against-Appeal_To_Reason-2008{Text}5-Rise_Against-Kotov_Syndrome.wav
Peak level 100.0 %
Track quality 100.0 %
Test CRC 7323B06E
Copy CRC 7323B06E
Copy OK
Track 6
Filename C:\Documents and Settings\Owner\Desktop\Rise_Against-Appeal_To_Reason-2008{Text}6-Rise_Against-From_Heads_Unworthy.wav
Peak level 100.0 %
Track quality 100.0 %
Test CRC 1BAAE503
Copy CRC 1BAAE503
Copy OK
Track 7
Filename C:\Documents and Settings\Owner\Desktop\Rise_Against-Appeal_To_Reason-2008{Text}7-Rise_Against-The_Strength_To_Go_On.wav
Peak level 100.0 %
Track quality 100.0 %
Test CRC C4563197
Copy CRC C4563197
Copy OK
Track 8
Filename C:\Documents and Settings\Owner\Desktop\Rise_Against-Appeal_To_Reason-2008{Text}8-Rise_Against-Audience_Of_One.wav
Peak level 100.0 %
Track quality 100.0 %
Test CRC 3404D2E9
Copy CRC 3404D2E9
Copy OK
Track 9
Filename C:\Documents and Settings\Owner\Desktop\Rise_Against-Appeal_To_Reason-2008{Text}9-Rise_Against-Entertainment.wav
Peak level 100.0 %
Track quality 100.0 %
Test CRC 79F477DC
Copy CRC 79F477DC
Copy OK
Track 10
Filename C:\Documents and Settings\Owner\Desktop\Rise_Against-Appeal_To_Reason-2008\10-Rise_Against-Hero_Of_War.wav
Peak level 100.0 %
Track quality 99.9 %
Test CRC DE525919
Copy CRC DE525919
Copy OK
Track 11
Filename C:\Documents and Settings\Owner\Desktop\Rise_Against-Appeal_To_Reason-2008\11-Rise_Against-Savior.wav
Peak level 100.0 %
Track quality 100.0 %
Test CRC D6541B98
Copy CRC D6541B98
Copy OK
Track 12
Filename C:\Documents and Settings\Owner\Desktop\Rise_Against-Appeal_To_Reason-2008\12-Rise_Against-Hairline_Fracture.wav
Peak level 100.0 %
Track quality 99.9 %
Test CRC 4BCB3AF7
Copy CRC 4BCB3AF7
Copy OK
Track 13
Filename C:\Documents and Settings\Owner\Desktop\Rise_Against-Appeal_To_Reason-2008\13-Rise_Against-Whereabouts_Unknown.wav
Peak level 100.0 %
Track quality 100.0 %
Test CRC 7FC8128D
Copy CRC 7FC8128D
Copy OK
No errors occurred
End of status report
ar
apach
apach
а есть то же самое только в мп3?
skatepunk
skatepunk
с перламутровыми пуговицами
Youdie
Youdie
skatepunk
скачай, да сконвертируй.
chocolate milk
chocolate milk
хы а ведь идея) спасибо,чоко)
skatepunk
skatepunk
блин, а как конвентировать? а то я нуб=(
Rammstein
Rammstein
apach
Спасибо,приятно послушать
Chubka
Chubka
Chubka
пожалуйста
apach
apach
apach где дискографии качаешь?
Трэвис
Трэвис
с торрентс.ру, откуда же еще. только там эта дискография содержит больше релизов.
apach
еще мне не понятна подпись. "мюзик релизер" - это что?
да еще и "спешл торрентс"
ты же качаешь их с внешки и дублируешь сюда.
так в чем заключается "спешл"?
chocolate milk
chocolate milk
Есть просто-таки убойные вещи!
Трэвис
Трэвис
chocolate milk
словосочитание нравится :)
apach
apach
спасибо большое, очень понравилось:)
Ultimate
Ultimate
apach
Какой альбом больше всего похож на альбом за 2006 год? (кроме 2008)
MAK-MEN
MAK-MEN
MAK-MEN
хы, хз, мне 2004 нравится
apach
apach
Ок, щас заценим, спс!
MAK-MEN
MAK-MEN
4ё за нах ищё такой?
Файл торрента какой та кривой и ни4ем не открывается!
....А так то я бы офигенски хотел бы заслушать..
mcBug
mcBug
"ничем" - это виндоус медиа плеер?
away
away

chocolate milk
chocolate milk
Спасибо за качество
Sergey Koshelev
Sergey Koshelev
Спасибо
Раздачу пожалуйста.
FlashBaster
FlashBaster
а почемуу меня не качается???
lizkamj
lizkamj

Имя:
E-mail (не обязательно):
Используется для уведомления о правильности ответа.
адм