как разбогатеть как стать богатым

(Alternative\Post-Grunge) Breaking Benjamin - Дискография 2002-2009, FLAC (tracks), lossless

Breaking Benjamin - Дискография 2002-2009

Страна: USA
Жанр: Alternative\Post-Grunge
Год выпуска: 2002-2009
Формат: FLAC (tracks)
Битрейт аудио: lossless

Трэклист:
1. Wish I May
2. Medicate
3. Polyamorous
4. Skin
5. Natural Life
6. Next to Nothing
7. Water
8. Home
9. Phase
10. No Games
11. Sugarcoat
12. Shallow Bay
13. Forever
EAC extraction logfile from 20. August 2006, 18:39 for CD
Breaking Benjamin / Saturate Album

Used drive : _NEC DVD_RW ND-3520A Adapter: 0 ID: 2
Read mode : Secure with NO C2, accurate stream, disable cache
Read offset correction : 48
Overread into Lead-In and Lead-Out : No

Used output format : C:\Program Files\FLAC\flac.exe (User Defined Encoder)
128 kBit/s
Additional command line options : -V -8 -T "artist=%a" -T "title=%t" -T "album=%g" -T "date=%y" -T "tracknumber=%n" -T "genre=%m" %s

Other options :
Fill up missing offset samples with silence : Yes
Delete leading and trailing silent blocks : No
Native Win32 interface for Win NT & 2000

Track 1
Filename C:\Documents and Settings\Sam\My Documents\Albums from EAC{Text}1 - Wish I May.wav

Pre-gap length 0:00:02.00

Peak level 99.2 %
Track quality 100.0 %
Test CRC A65E5F30
Copy CRC A65E5F30
Copy OK

Track 2
Filename C:\Documents and Settings\Sam\My Documents\Albums from EAC{Text}2 - Medicate.wav

Peak level 98.5 %
Track quality 100.0 %
Test CRC F35D9D4B
Copy CRC F35D9D4B
Copy OK

Track 3
Filename C:\Documents and Settings\Sam\My Documents\Albums from EAC{Text}3 - Polyamorous.wav

Peak level 98.1 %
Track quality 99.9 %
Test CRC 4B6D252A
Copy CRC 4B6D252A
Copy OK

Track 4
Filename C:\Documents and Settings\Sam\My Documents\Albums from EAC{Text}4 - Skin.wav

Peak level 99.8 %
Track quality 99.9 %
Test CRC AC2CA957
Copy CRC AC2CA957
Copy OK

Track 5
Filename C:\Documents and Settings\Sam\My Documents\Albums from EAC{Text}5 - Natural Life.wav

Peak level 99.8 %
Track quality 100.0 %
Test CRC 69BC7376
Copy CRC 69BC7376
Copy OK

Track 6
Filename C:\Documents and Settings\Sam\My Documents\Albums from EAC{Text}6 - Next To Nothing.wav

Peak level 99.8 %
Track quality 100.0 %
Test CRC 4EE10DB9
Copy CRC 4EE10DB9
Copy OK

Track 7
Filename C:\Documents and Settings\Sam\My Documents\Albums from EAC{Text}7 - Water.wav

Peak level 99.8 %
Track quality 99.9 %
Test CRC 5357FD6F
Copy CRC 5357FD6F
Copy OK

Track 8
Filename C:\Documents and Settings\Sam\My Documents\Albums from EAC{Text}8 - Home.wav

Peak level 99.3 %
Track quality 99.4 %
Test CRC 31BC5428
Copy CRC 31BC5428
Copy OK

Track 9
Filename C:\Documents and Settings\Sam\My Documents\Albums from EAC{Text}9 - Phase.wav

Peak level 99.0 %
Track quality 100.0 %
Test CRC FFC46D12
Copy CRC FFC46D12
Copy OK

Track 10
Filename C:\Documents and Settings\Sam\My Documents\Albums from EAC\10 - No Games.wav

Peak level 99.8 %
Track quality 99.9 %
Test CRC 3B3BEC8B
Copy CRC 3B3BEC8B
Copy OK

Track 11
Filename C:\Documents and Settings\Sam\My Documents\Albums from EAC\11 - Sugarcoat.wav

Peak level 99.8 %
Track quality 100.0 %
Test CRC D86ACCDD
Copy CRC D86ACCDD
Copy OK

Track 12
Filename C:\Documents and Settings\Sam\My Documents\Albums from EAC\12 - Shallow Bay.wav

Peak level 99.8 %
Track quality 100.0 %
Test CRC D5080A63
Copy CRC D5080A63
Copy OK

Track 13
Filename C:\Documents and Settings\Sam\My Documents\Albums from EAC\13 - Forever (Hidden Bonus Track).wav

Peak level 99.8 %
Track quality 100.0 %
Test CRC 65F9AF65
Copy CRC 65F9AF65
Copy OK

No errors occured

End of status report
1. So Cold
2. Simple Design
3. Follow Me
4. Firefly
5. Break My Fall
6. Forget It
7. Sooner or Later
8. Breakdown
9. Away
10. Believe
11. Rain
EAC extraction logfile from 11. January 2007, 17:02 for CD
Breaking Benjamin / We Are Not Alone (Japanese Import)

Used drive : JLMS XJ-HD166S Adapter: 1 ID: 1
Read mode : Secure with NO C2, accurate stream, disable cache
Read offset correction : 12
Overread into Lead-In and Lead-Out : No

Used output format : C:\Program Files\FLAC\flac.exe (User Defined Encoder)
128 kBit/s
Additional command line options : -V -8 -T "artist=%a" -T "title=%t" -T "album=%g" -T "date=%y" -T "tracknumber=%n" -T "genre=%m" %s

Other options :
Fill up missing offset samples with silence : Yes
Delete leading and trailing silent blocks : No
Native Win32 interface for Win NT & 2000

Track 1
Filename E:\Torrent Downloads (In Progress)\Breaking Benjamin - 2004-09-15 -- We Are Not Alone (Japanese Import){Text}1 - So Cold.wav

Pre-gap length 0:00:02.00

Peak level 99.2 %
Track quality 100.0 %
Test CRC 851D9E75
Copy CRC 851D9E75
Copy OK

Track 2
Filename E:\Torrent Downloads (In Progress)\Breaking Benjamin - 2004-09-15 -- We Are Not Alone (Japanese Import){Text}2 - Simple Design.wav

Peak level 99.2 %
Track quality 100.0 %
Test CRC 089F232F
Copy CRC 089F232F
Copy OK

Track 3
Filename E:\Torrent Downloads (In Progress)\Breaking Benjamin - 2004-09-15 -- We Are Not Alone (Japanese Import){Text}3 - Follow.wav

Peak level 99.2 %
Track quality 99.9 %
Test CRC 90CAFF61
Copy CRC 90CAFF61
Copy OK

Track 4
Filename E:\Torrent Downloads (In Progress)\Breaking Benjamin - 2004-09-15 -- We Are Not Alone (Japanese Import){Text}4 - Firefly.wav

Peak level 99.2 %
Track quality 100.0 %
Test CRC D79F7983
Copy CRC D79F7983
Copy OK

Track 5
Filename E:\Torrent Downloads (In Progress)\Breaking Benjamin - 2004-09-15 -- We Are Not Alone (Japanese Import){Text}5 - Break My Fall.wav

Peak level 99.2 %
Track quality 100.0 %
Test CRC 73D6B485
Copy CRC 73D6B485
Copy OK

Track 6
Filename E:\Torrent Downloads (In Progress)\Breaking Benjamin - 2004-09-15 -- We Are Not Alone (Japanese Import){Text}6 - Forget It.wav

Peak level 99.2 %
Track quality 100.0 %
Test CRC 8F936487
Copy CRC 8F936487
Copy OK

Track 7
Filename E:\Torrent Downloads (In Progress)\Breaking Benjamin - 2004-09-15 -- We Are Not Alone (Japanese Import){Text}7 - Sooner Or Later.wav

Peak level 99.2 %
Track quality 99.9 %
Test CRC C57F2300
Copy CRC C57F2300
Copy OK

Track 8
Filename E:\Torrent Downloads (In Progress)\Breaking Benjamin - 2004-09-15 -- We Are Not Alone (Japanese Import){Text}8 - Breakdown.wav

Peak level 99.2 %
Track quality 100.0 %
Test CRC 32CCD621
Copy CRC 32CCD621
Copy OK

Track 9
Filename E:\Torrent Downloads (In Progress)\Breaking Benjamin - 2004-09-15 -- We Are Not Alone (Japanese Import){Text}9 - Away.wav

Peak level 99.2 %
Track quality 100.0 %
Test CRC 9AAAB475
Copy CRC 9AAAB475
Copy OK

Track 10
Filename E:\Torrent Downloads (In Progress)\Breaking Benjamin - 2004-09-15 -- We Are Not Alone (Japanese Import)\10 - Believe.wav

Peak level 99.2 %
Track quality 100.0 %
Test CRC 48E87515
Copy CRC 48E87515
Copy OK

Track 11
Filename E:\Torrent Downloads (In Progress)\Breaking Benjamin - 2004-09-15 -- We Are Not Alone (Japanese Import)\11 - Rain.wav

Pre-gap length 0:00:01.16

Peak level 99.2 %
Track quality 99.9 %
Test CRC EAB410DA
Copy CRC EAB410DA
Copy OK

Track 12
Filename E:\Torrent Downloads (In Progress)\Breaking Benjamin - 2004-09-15 -- We Are Not Alone (Japanese Import)\12 - Ordinary Man.wav

Peak level 99.2 %
Track quality 100.0 %
Test CRC 150B536E
Copy CRC 150B536E
Copy OK

Track 13
Filename E:\Torrent Downloads (In Progress)\Breaking Benjamin - 2004-09-15 -- We Are Not Alone (Japanese Import)\13 - Lady Bug.wav

Peak level 97.3 %
Track quality 100.0 %
Test CRC E7EC00A3
Copy CRC E7EC00A3
Copy OK

No errors occured

End of status report
1. Intro
2. The Diary of Jane
3. Breath
4. You
5. Evil Angel
6. Until the End
7. Dance with the Devil
8. Topless
9. Here We Are
10. Unknown Soldier
11. Had Enough
12. You Fight Me
13. Outro
14. The Diary of Jane (Acoustic)
EAC extraction logfile from 9. August 2006, 13:35 for CD
Breaking Benjamin / Phobia

Used drive : PIONEER DVD-RW DVR-111D Adapter: 0 ID: 0
Read mode : Secure with NO C2, accurate stream, disable cache
Combined read/write offset correction : 0
Overread into Lead-In and Lead-Out : No

Used output format : C:\mareo\mareo.exe (User Defined Encoder)
320 kBit/s
Additional command line options : mareo.ini %s %d "%a" "%g" "%t" "%n" %y "%m"

Other options :
Fill up missing offset samples with silence : Yes
Delete leading and trailing silent blocks : No
Native Win32 interface for Win NT & 2000

Track 1
Filename C:\Breaking Benjamin WAVs{Text}1 - Breaking Benjamin - Intro.wav

Peak level 96.6 %
Track quality 100.0 %
Copy CRC C3AE2072
Copy OK

Track 2
Filename C:\Breaking Benjamin WAVs{Text}2 - Breaking Benjamin - The Diary Of Jane.wav

Peak level 96.6 %
Track quality 99.9 %
Copy CRC FC19E2BD
Copy OK

Track 3
Filename C:\Breaking Benjamin WAVs{Text}3 - Breaking Benjamin - Breath.wav

Peak level 96.6 %
Track quality 99.9 %
Copy CRC 5E2EEE75
Copy OK

Track 4
Filename C:\Breaking Benjamin WAVs{Text}4 - Breaking Benjamin - You.wav

Peak level 96.6 %
Track quality 100.0 %
Copy CRC 03932702
Copy OK

Track 5
Filename C:\Breaking Benjamin WAVs{Text}5 - Breaking Benjamin - Evil Angel.wav

Peak level 96.6 %
Track quality 100.0 %
Copy CRC A5E366F2
Copy OK

Track 6
Filename C:\Breaking Benjamin WAVs{Text}6 - Breaking Benjamin - Until The End.wav

Peak level 96.6 %
Track quality 100.0 %
Copy CRC 3FACC6DE
Copy OK

Track 7
Filename C:\Breaking Benjamin WAVs{Text}7 - Breaking Benjamin - Dance With The Devil.wav

Peak level 96.6 %
Track quality 100.0 %
Copy CRC 6EDDC55A
Copy OK

Track 8
Filename C:\Breaking Benjamin WAVs{Text}8 - Breaking Benjamin - Topless.wav

Peak level 96.6 %
Track quality 100.0 %
Copy CRC 5B16CC68
Copy OK

Track 9
Filename C:\Breaking Benjamin WAVs{Text}9 - Breaking Benjamin - Here We Are.wav

Peak level 96.6 %
Track quality 100.0 %
Copy CRC 4699E9E7
Copy OK

Track 10
Filename C:\Breaking Benjamin WAVs\10 - Breaking Benjamin - Unknown Soldier.wav

Peak level 96.6 %
Track quality 100.0 %
Copy CRC 49708784
Copy OK

Track 11
Filename C:\Breaking Benjamin WAVs\11 - Breaking Benjamin - Had Enough.wav

Peak level 96.6 %
Track quality 100.0 %
Copy CRC D2B06970
Copy OK

Track 12
Filename C:\Breaking Benjamin WAVs\12 - Breaking Benjamin - You Fight Me.wav

Peak level 96.6 %
Track quality 100.0 %
Copy CRC 1B317FBD
Copy OK

Track 13
Filename C:\Breaking Benjamin WAVs\13 - Breaking Benjamin - Outro.wav

Peak level 96.6 %
Track quality 100.0 %
Copy CRC C34DC943
Copy OK

Track 14
Filename C:\Breaking Benjamin WAVs\14 - Breaking Benjamin - The Diary Of Jane (Acoustic).wav

Peak level 96.6 %
Track quality 100.0 %
Copy CRC 8D52417E
Copy OK

No errors occured

End of status report
01. Fade Away
02. I Will Not Bow
03. Crawl
04. Dear Agony
05. Lights Out
06. What Lies Beneath
07. Without You
08. Give Me a Sign
09. Hopeless
10. Into the Nothing
11. Anthem of the Angels
Exact Audio Copy V0.99 prebeta 5 from 4. May 2009

EAC extraction logfile from 25. September 2009, 12:46

Breaking Benjamin / Dear Agony

Used drive : SONY CD-RW CRX230EE Adapter: 0 ID: 1

Read mode : Secure
Utilize accurate stream : Yes
Defeat audio cache : Yes
Make use of C2 pointers : No

Read offset correction : 0
Overread into Lead-In and Lead-Out : No
Fill up missing offset samples with silence : Yes
Delete leading and trailing silent blocks : No
Null samples used in CRC calculations : Yes
Used interface : Native Win32 interface for Win NT & 2000
Gap handling : Appended to previous track

Used output format : User Defined Encoder
Selected bitrate : 128 kBit/s
Quality : High
Add ID3 tag : Yes
Command line compressor : C:\Program Files\Exact Audio Copy\Flac\flac.exe
Additional command line options : -6 -V -T "artist=%a" -T "title=%t" -T "album=%g" -T "date=%y" -T "tracknumber=%n" -T "genre=%m" -T comment="%e" -T "comment=EAC (Secure Mode)" %s

TOC of the extracted CD

Track | Start | Length | Start sector | End sector
---------------------------------------------------------
1 | 0:00.00 | 3:16.02 | 0 | 14701
2 | 3:16.02 | 3:36.55 | 14702 | 30956
3 | 6:52.57 | 3:58.68 | 30957 | 48874
4 | 10:51.50 | 4:17.52 | 48875 | 68201
5 | 15:09.27 | 3:20.01 | 68202 | 83202
6 | 18:29.28 | 3:34.59 | 83203 | 99311
7 | 22:04.12 | 4:02.54 | 99312 | 117515
8 | 26:06.66 | 3:33.48 | 117516 | 133538
9 | 29:40.39 | 4:18.19 | 133539 | 152907
10 | 33:58.58 | 3:43.70 | 152908 | 169702
11 | 37:42.53 | 4:16.56 | 169703 | 188958
12 | 44:31.34 | 1:35.71 | 200359 | 207554

Track 1

Filename E:\Flac\Breaking Benjamin - Dear Agony{Text}1 - Fade Away.wav

Pre-gap length 0:00:02.00

Peak level 100.0 %
Track quality 100.0 %
Test CRC 88C8513A
Copy CRC 88C8513A
Copy OK

Track 2

Filename E:\Flac\Breaking Benjamin - Dear Agony{Text}2 - I Will Not Bow.wav

Peak level 100.0 %
Track quality 100.0 %
Test CRC 0A7D9D45
Copy CRC 0A7D9D45
Copy OK

Track 3

Filename E:\Flac\Breaking Benjamin - Dear Agony{Text}3 - Crawl.wav

Peak level 100.0 %
Track quality 100.0 %
Test CRC 56F50DFB
Copy CRC 56F50DFB
Copy OK

Track 4

Filename E:\Flac\Breaking Benjamin - Dear Agony{Text}4 - Give Me A Sign.wav

Peak level 100.0 %
Track quality 99.9 %
Test CRC 248BED66
Copy CRC 248BED66
Copy OK

Track 5

Filename E:\Flac\Breaking Benjamin - Dear Agony{Text}5 - Hopeless.wav

Peak level 100.0 %
Track quality 100.0 %
Test CRC 51353FB0
Copy CRC 51353FB0
Copy OK

Track 6

Filename E:\Flac\Breaking Benjamin - Dear Agony{Text}6 - What Lies Beneath.wav

Peak level 100.0 %
Track quality 100.0 %
Test CRC B8731805
Copy CRC B8731805
Copy OK

Track 7

Filename E:\Flac\Breaking Benjamin - Dear Agony{Text}7 - Anthem of The Angels.wav

Peak level 100.0 %
Track quality 100.0 %
Test CRC E7046B77
Copy CRC E7046B77
Copy OK

Track 8

Filename E:\Flac\Breaking Benjamin - Dear Agony{Text}8 - Lights Out.wav

Peak level 100.0 %
Track quality 100.0 %
Test CRC 02DAC294
Copy CRC 02DAC294
Copy OK

Track 9

Filename E:\Flac\Breaking Benjamin - Dear Agony{Text}9 - Dear Agony.wav

Peak level 100.0 %
Track quality 100.0 %
Test CRC DCA5F672
Copy CRC DCA5F672
Copy OK

Track 10

Filename E:\Flac\Breaking Benjamin - Dear Agony\10 - Into The Nothing.wav

Peak level 100.0 %
Track quality 100.0 %
Test CRC AB6F197C
Copy CRC AB6F197C
Copy OK

Track 11

Filename E:\Flac\Breaking Benjamin - Dear Agony\11 - Without You.wav

Peak level 100.0 %
Track quality 100.0 %
Test CRC 0353B4B0
Copy CRC 0353B4B0
Copy OK

No errors occurred

End of status report

Update 30.09.2009: Добавлен альбом "Dear Agony (2009)"
apach
apach
Вернулся на раздачу
apach
apach
Update 30.09.2009: Добавлен альбом "Dear Agony (2009)"
apach
apach
СПАСИБО!
mze
mze
Спасибо!!!)
max1
max1
Апач, шапку поправь.
Airflow
Airflow
и название темы.
Youdie
Youdie
чо с шапкой то? вроде все ништь
Bon_Scott
Bon_Scott
проверяльщик хороший.
сам все поправил.
Youdie
Youdie

Имя:
E-mail (не обязательно):
Используется для уведомления о правильности ответа.
адм