как разбогатеть как стать богатым

(Alternative Rock) Placebo - Дискография 1996-2006, FLAC (tracks), lossless

Placebo - Дискография

Страна: UK
Жанр: Alternative Rock
Год выпуска: 1996-2006
Формат: FLAC (tracks)
Битрейт аудио: lossless
Трэклист:
Дата выхода альбома (оригинального): 17.07.96
Дата выхода альбома (remastered): 25.09.06
Продолжительность: 01:04:15
Треклист:
01. Come Home (5:09)
02. Teenage Angst (2:42)
03. Bionic (5:01)
04. 36 Degrees (3:05)
05. Hang on To Your IQ (5:14)
06. Nancy Boy (3:31)
07. I Know (4:44)
08. Bruise Pristine (3:39)
09. Lady Of The Flowers (4:49)
10. Swallow (4:54)
-----Треки появились в remastered альбоме-----
11. Paycheck (Demo) (3:01)
12. Flesh Mechanic (Demo) (4:30)
13. Drowning By Numbers (2:58)
14. Slackerbitch (3:25)
15. H.K Farewell (7:33)
EAC extraction logfile from 1. November 2006, 20:54 for CD
Placebo / Placebo 10TH ANNIVERSARY COLLECTORS EDITION
Used drive : _NEC DVD_RW ND-3530A Adapter: 1 ID: 1
Read mode : Secure with C2, accurate stream, NO disable cache
Read offset correction : 48
Overread into Lead-In and Lead-Out : No
Used output format : C:\Archivos de programa\FLAC\flac.exe (User Defined Encoder)
192 kBit/s
Additional command line options : -V -8 -T "artist=%a" -T "title=%t" -T "album=%g" -T "date=%y" -T "tracknumber=%n" -T "genre=%m" %s
Other options :
Fill up missing offset samples with silence : Yes
Delete leading and trailing silent blocks : No
Native Win32 interface for Win NT & 2000
Track 1
Filename C:\Documents and Settings\Roberto Diaz-Meco\Mis documentos\Mi mъsica\Fernando\Placebo-Placebo-(10th_Anniversary_Collectors_Edition)-FLAC{Text}1 - Placebo - Come Home.wav
Pre-gap length 0:00:02.00
Peak level 99.9 %
Track quality 100.0 %
Test CRC 04597F94
Copy CRC 04597F94
Copy OK
Track 2
Filename C:\Documents and Settings\Roberto Diaz-Meco\Mis documentos\Mi mъsica\Fernando\Placebo-Placebo-(10th_Anniversary_Collectors_Edition)-FLAC{Text}2 - Placebo - Teenage Angst.wav
Peak level 99.9 %
Track quality 100.0 %
Test CRC 65A65AA6
Copy CRC 65A65AA6
Copy OK
Track 3
Filename C:\Documents and Settings\Roberto Diaz-Meco\Mis documentos\Mi mъsica\Fernando\Placebo-Placebo-(10th_Anniversary_Collectors_Edition)-FLAC{Text}3 - Placebo - Bionic.wav
Pre-gap length 0:00:00.96
Peak level 99.9 %
Track quality 100.0 %
Test CRC B22C1BF7
Copy CRC B22C1BF7
Copy OK
Track 4
Filename C:\Documents and Settings\Roberto Diaz-Meco\Mis documentos\Mi mъsica\Fernando\Placebo-Placebo-(10th_Anniversary_Collectors_Edition)-FLAC{Text}4 - Placebo - 36 Degrees.wav
Peak level 99.8 %
Track quality 100.0 %
Test CRC 0AEF2E53
Copy CRC 0AEF2E53
Copy OK
Track 5
Filename C:\Documents and Settings\Roberto Diaz-Meco\Mis documentos\Mi mъsica\Fernando\Placebo-Placebo-(10th_Anniversary_Collectors_Edition)-FLAC{Text}5 - Placebo - Hang on To Your IQ.wav
Peak level 99.9 %
Track quality 100.0 %
Test CRC 1589B010
Copy CRC 1589B010
Copy OK
Track 6
Filename C:\Documents and Settings\Roberto Diaz-Meco\Mis documentos\Mi mъsica\Fernando\Placebo-Placebo-(10th_Anniversary_Collectors_Edition)-FLAC{Text}6 - Placebo - Nancy Boy.wav
Peak level 99.9 %
Track quality 100.0 %
Test CRC 5971F67F
Copy CRC 5971F67F
Copy OK
Track 7
Filename C:\Documents and Settings\Roberto Diaz-Meco\Mis documentos\Mi mъsica\Fernando\Placebo-Placebo-(10th_Anniversary_Collectors_Edition)-FLAC{Text}7 - Placebo - I Know.wav
Pre-gap length 0:00:01.94
Peak level 99.9 %
Track quality 100.0 %
Test CRC 103C159E
Copy CRC 103C159E
Copy OK
Track 8
Filename C:\Documents and Settings\Roberto Diaz-Meco\Mis documentos\Mi mъsica\Fernando\Placebo-Placebo-(10th_Anniversary_Collectors_Edition)-FLAC{Text}8 - Placebo - Bruise Pristine.wav
Pre-gap length 0:00:00.25
Peak level 99.9 %
Track quality 100.0 %
Test CRC B238BD75
Copy CRC B238BD75
Copy OK
Track 9
Filename C:\Documents and Settings\Roberto Diaz-Meco\Mis documentos\Mi mъsica\Fernando\Placebo-Placebo-(10th_Anniversary_Collectors_Edition)-FLAC{Text}9 - Placebo - Lady Of The Flowers.wav
Pre-gap length 0:00:01.30
Peak level 99.9 %
Track quality 100.0 %
Test CRC B06C84DD
Copy CRC B06C84DD
Copy OK
Track 10
Filename C:\Documents and Settings\Roberto Diaz-Meco\Mis documentos\Mi mъsica\Fernando\Placebo-Placebo-(10th_Anniversary_Collectors_Edition)-FLAC\10 - Placebo - Swallow.wav
Peak level 99.9 %
Track quality 100.0 %
Test CRC 33488A59
Copy CRC 33488A59
Copy OK
Track 11
Filename C:\Documents and Settings\Roberto Diaz-Meco\Mis documentos\Mi mъsica\Fernando\Placebo-Placebo-(10th_Anniversary_Collectors_Edition)-FLAC\11 - Placebo - Paycheck (Demo).wav
Pre-gap length 0:00:04.16
Peak level 99.9 %
Track quality 99.8 %
Test CRC B14A6116
Copy CRC B14A6116
Copy OK
Track 12
Filename C:\Documents and Settings\Roberto Diaz-Meco\Mis documentos\Mi mъsica\Fernando\Placebo-Placebo-(10th_Anniversary_Collectors_Edition)-FLAC\12 - Placebo - Flesh Mechanic (Demo).wav
Pre-gap length 0:00:00.80
Peak level 99.9 %
Track quality 100.0 %
Test CRC DEA3F447
Copy CRC DEA3F447
Copy OK
Track 13
Filename C:\Documents and Settings\Roberto Diaz-Meco\Mis documentos\Mi mъsica\Fernando\Placebo-Placebo-(10th_Anniversary_Collectors_Edition)-FLAC\13 - Placebo - Drowning By Numbers.wav
Pre-gap length 0:00:00.72
Peak level 99.9 %
Track quality 99.8 %
Test CRC E8B7A08D
Copy CRC E8B7A08D
Copy OK
Track 14
Filename C:\Documents and Settings\Roberto Diaz-Meco\Mis documentos\Mi mъsica\Fernando\Placebo-Placebo-(10th_Anniversary_Collectors_Edition)-FLAC\14 - Placebo - Slackerbitch.wav
Pre-gap length 0:00:00.78
Peak level 99.9 %
Track quality 100.0 %
Test CRC 5763CA99
Copy CRC 5763CA99
Copy OK
Track 15
Filename C:\Documents and Settings\Roberto Diaz-Meco\Mis documentos\Mi mъsica\Fernando\Placebo-Placebo-(10th_Anniversary_Collectors_Edition)-FLAC\15 - Placebo - H.K Farewell.wav
Pre-gap length 0:00:01.41
Peak level 99.9 %
Track quality 100.0 %
Test CRC FBE47F94
Copy CRC FBE47F94
Copy OK
No errors occured
End of status report
Дата выхода альбома: 12.10.98
Продолжительность: 01:05:52
Треклист:
01. Pure Morning (4:14)
02. Brick Shithouse (3:18)
03. You Don't Care About Us (3:58)
04. Ask For Answers (5:19)
05. Without You I'm Nothing (4:08)
06. Allergic (To Thoughts Of Mother Earth) (3:49)
07. The Crawl (2:59)
08. Every You Every Me (3:33)
09. My Sweet Prince (5:45)
10. Summer's Gone (3:05)
11. Scared Of Girls (3:01)
12. Burger Queen (22:39) (with hidden: Evil Dildo)
EAC extraction logfile from 16. August 2006, 12:36 for CD
Placebo / Without You I'm Nothing
Used drive : _NEC DVD_RW ND-3500AG Adapter: 0 ID: 0
Read mode : Secure with NO C2, accurate stream, disable cache
Read offset correction : 48
Overread into Lead-In and Lead-Out : No
Used output format : C:\Program Files\FLAC\bin\flac.exe (User Defined Encoder)
320 kBit/s
Additional command line options : -V -8 -T "artist=%a" -T "title=%t" -T "album=%g" -T "date=%y" -T "tracknumber=%n" -T "genre=%m" %s
Other options :
Fill up missing offset samples with silence : Yes
Delete leading and trailing silent blocks : No
Native Win32 interface for Win NT & 2000
Track 1
Filename C:\FLAC\Placebo\Without You I'm Nothing{Text}1 - Pure Morning.wav
Pre-gap length 0:00:02.00
Peak level 97.9 %
Track quality 100.0 %
Test CRC B28862C5
Copy CRC B28862C5
Copy OK
Track 2
Filename C:\FLAC\Placebo\Without You I'm Nothing{Text}2 - Brick Shithouse.wav
Pre-gap length 0:00:00.02
Peak level 97.9 %
Track quality 100.0 %
Test CRC B24A67B3
Copy CRC B24A67B3
Copy OK
Track 3
Filename C:\FLAC\Placebo\Without You I'm Nothing{Text}3 - You Don't Care About Us.wav
Pre-gap length 0:00:00.04
Peak level 97.9 %
Track quality 99.9 %
Test CRC B3AB2419
Copy CRC B3AB2419
Copy OK
Track 4
Filename C:\FLAC\Placebo\Without You I'm Nothing{Text}4 - Ask For Answers.wav
Pre-gap length 0:00:00.04
Peak level 97.9 %
Track quality 100.0 %
Test CRC CF92E0D0
Copy CRC CF92E0D0
Copy OK
Track 5
Filename C:\FLAC\Placebo\Without You I'm Nothing{Text}5 - Without You I'm Nothing.wav
Pre-gap length 0:00:00.04
Peak level 97.9 %
Track quality 100.0 %
Test CRC D104798B
Copy CRC D104798B
Copy OK
Track 6
Filename C:\FLAC\Placebo\Without You I'm Nothing{Text}6 - Allergic (To Thoughts Of Mother Earth).wav
Peak level 97.9 %
Track quality 99.9 %
Test CRC E8ED1CC7
Copy CRC E8ED1CC7
Copy OK
Track 7
Filename C:\FLAC\Placebo\Without You I'm Nothing{Text}7 - The Crawl.wav
Pre-gap length 0:00:00.04
Peak level 97.9 %
Track quality 99.9 %
Test CRC B81E9ADE
Copy CRC B81E9ADE
Copy OK
Track 8
Filename C:\FLAC\Placebo\Without You I'm Nothing{Text}8 - Every You Every Me.wav
Pre-gap length 0:00:00.02
Peak level 97.9 %
Track quality 100.0 %
Test CRC F2799E32
Copy CRC F2799E32
Copy OK
Track 9
Filename C:\FLAC\Placebo\Without You I'm Nothing{Text}9 - My Sweet Prince.wav
Pre-gap length 0:00:01.00
Peak level 97.9 %
Track quality 100.0 %
Test CRC BF84E14F
Copy CRC BF84E14F
Copy OK
Track 10
Filename C:\FLAC\Placebo\Without You I'm Nothing\10 - Summer's Gone.wav
Pre-gap length 0:00:01.09
Peak level 97.9 %
Track quality 100.0 %
Test CRC D52B370E
Copy CRC D52B370E
Copy OK
Track 11
Filename C:\FLAC\Placebo\Without You I'm Nothing\11 - Scared Of Girls.wav
Pre-gap length 0:00:00.02
Peak level 97.9 %
Track quality 100.0 %
Test CRC FE6D22C3
Copy CRC FE6D22C3
Copy OK
Track 12
Filename C:\FLAC\Placebo\Without You I'm Nothing\12 - Burger Queen.wav
Pre-gap length 0:00:01.00
Peak level 97.9 %
Track quality 99.8 %
Test CRC A2AC80A1
Copy CRC A2AC80A1
Copy OK
No errors occured
End of status report
Дата выхода альбома: 09.10.00
Продолжительность: 00:55:47
Треклист:
01. Taste In Men (4:15)
02. Days Before You Came (2:33)
03. Special K (3:52)
04. Spite & Malice (3:37)
05. Passive Aggressive (5:24)
06. Black-Eyed (3:48)
07. Blue American (3:31)
08. Slave To The Wage (4:06)
09. Commercial For Levi (2:20)
10. Haemoglobin (3:46)
11. Narcoleptic (4:22)
12. Peeping Tom (14:10) (with hidden: Black Market Blood)
EAC extraction logfile from 16. August 2006, 10:14 for CD
Placebo / Black Market Music
Used drive : _NEC DVD_RW ND-3500AG Adapter: 0 ID: 0
Read mode : Secure with NO C2, accurate stream, disable cache
Read offset correction : 48
Overread into Lead-In and Lead-Out : No
Used output format : C:\Program Files\FLAC\bin\flac.exe (User Defined Encoder)
320 kBit/s
Additional command line options : -V -8 -T "artist=%a" -T "title=%t" -T "album=%g" -T "date=%y" -T "tracknumber=%n" -T "genre=%m" %s
Other options :
Fill up missing offset samples with silence : Yes
Delete leading and trailing silent blocks : No
Native Win32 interface for Win NT & 2000
Track 1
Filename C:\FLAC\Placebo\Black Market Music{Text}1 - Taste In Men.wav
Pre-gap length 0:00:02.00
Peak level 99.2 %
Track quality 99.9 %
Test CRC 9BD544B7
Copy CRC 9BD544B7
Copy OK
Track 2
Filename C:\FLAC\Placebo\Black Market Music{Text}2 - Days Before You Came.wav
Pre-gap length 0:00:01.80
Peak level 99.6 %
Track quality 100.0 %
Test CRC 2257A813
Copy CRC 2257A813
Copy OK
Track 3
Filename C:\FLAC\Placebo\Black Market Music{Text}3 - Special K.wav
Pre-gap length 0:00:02.36
Peak level 100.0 %
Track quality 100.0 %
Test CRC 6BC780F2
Copy CRC 6BC780F2
Copy OK
Track 4
Filename C:\FLAC\Placebo\Black Market Music{Text}4 - Spite & Malice.wav
Pre-gap length 0:00:02.13
Peak level 99.8 %
Track quality 99.9 %
Test CRC C6D1B758
Copy CRC C6D1B758
Copy OK
Track 5
Filename C:\FLAC\Placebo\Black Market Music{Text}5 - Passive Aggressive.wav
Pre-gap length 0:00:02.66
Peak level 100.0 %
Track quality 100.0 %
Test CRC 719F9E8E
Copy CRC 719F9E8E
Copy OK
Track 6
Filename C:\FLAC\Placebo\Black Market Music{Text}6 - Black-Eyed.wav
Pre-gap length 0:00:00.69
Peak level 89.5 %
Track quality 99.9 %
Test CRC 6B4CCF94
Copy CRC 6B4CCF94
Copy OK
Track 7
Filename C:\FLAC\Placebo\Black Market Music{Text}7 - Blue American.wav
Pre-gap length 0:00:01.86
Peak level 95.5 %
Track quality 100.0 %
Test CRC 1B30E7F1
Copy CRC 1B30E7F1
Copy OK
Track 8
Filename C:\FLAC\Placebo\Black Market Music{Text}8 - Slave To The Wage.wav
Pre-gap length 0:00:00.62
Peak level 93.3 %
Track quality 100.0 %
Test CRC 85E5B1D4
Copy CRC 85E5B1D4
Copy OK
Track 9
Filename C:\FLAC\Placebo\Black Market Music{Text}9 - Commercial For Levi.wav
Pre-gap length 0:00:00.90
Peak level 100.0 %
Track quality 99.9 %
Test CRC 3BA05AB9
Copy CRC 3BA05AB9
Copy OK
Track 10
Filename C:\FLAC\Placebo\Black Market Music\10 - Haemoglobin.wav
Pre-gap length 0:00:03.56
Peak level 96.9 %
Track quality 99.9 %
Test CRC B4DB110A
Copy CRC B4DB110A
Copy OK
Track 11
Filename C:\FLAC\Placebo\Black Market Music\11 - Narcoleptic.wav
Pre-gap length 0:00:03.66
Peak level 98.7 %
Track quality 99.9 %
Test CRC 16252201
Copy CRC 16252201
Copy OK
Track 12
Filename C:\FLAC\Placebo\Black Market Music\12 - Peeping Tom.wav
Pre-gap length 0:00:00.84
Peak level 97.4 %
Track quality 100.0 %
Test CRC B3234DE3
Copy CRC B3234DE3
Copy OK
No errors occured
End of status report
Специальное, двухдисковое издание.
Дата выхода альбома: 22.09.03
Продолжительность: 00:46:38/00:40:46
Треклист:
CD1:
01. Bulletproof Cupid (2:22)
02. English Summer Rain (4:01)
03. This Picture (3:35)
04. Sleeping With Ghosts (4:39)
05. The Bitter End (3:11)
06. Something Rotten (5:28)
07. Plasticine (3:27)
08. Special Needs (5:16)
09. Iґll Be Yours (3:32)
10. Second Sight (2:50)
11. Protect Me From What I Want (3:16)
12. Centrefolds (5:01)
CD2 (covers CD):
01. Running Up That Hill (Kate Bush) (4:57)
02. Where Is My Mind (Pixies) (3:45)
03. Bigmouth Strikes Again (The Smiths) (3:55)
04. Johnny And Mary (Robert Palmer) (3:26)
05. 20th Century Boy (T-Rex) (3:41)
06. The Ballad Of Melody Nelson (Serge Gaisbourg) (3:58)
07. Holocaust (Alex Chilton) (4:28)
08. I Feel You (Depeche Mode) (6:26)
09. Daddy Cool (Boney M) (3:22)
10. Jackie (Sinead OґConnor) (2:48)
EAC extraction logfile from 14. December 2006, 13:14 for CD
Placebo / Sleeping With Ghosts
Used drive : _NEC DVD_RW ND-2500A Adapter: 1 ID: 2
Read mode : Secure with NO C2, accurate stream, disable cache
Read offset correction : 48
Overread into Lead-In and Lead-Out : No
Used output format : C:\Program Files\FLAC\flac.exe (User Defined Encoder)
128 kBit/s
Additional command line options : -V -8 -T "artist=%a" -T "title=%t" -T "album=%g" -T "date=%y" -T "tracknumber=%n" -T "genre=%m" %s
Other options :
Fill up missing offset samples with silence : Yes
Delete leading and trailing silent blocks : No
Native Win32 interface for Win NT & 2000
Track 1
Filename G:\FLAC\Placebo\Sleeping With Ghosts{Text}1 - Bulletproof Cupid.wav
Pre-gap length 0:00:02.00
Peak level 91.2 %
Track quality 100.0 %
Test CRC 8588EA26
Copy CRC 8588EA26
Copy OK
Track 2
Filename G:\FLAC\Placebo\Sleeping With Ghosts{Text}2 - English Summer Rain.wav
Peak level 94.4 %
Track quality 100.0 %
Test CRC B9EE12CD
Copy CRC B9EE12CD
Copy OK
Track 3
Filename G:\FLAC\Placebo\Sleeping With Ghosts{Text}3 - This Picture.wav
Pre-gap length 0:00:01.08
Peak level 91.2 %
Track quality 100.0 %
Test CRC E8F7F1B0
Copy CRC E8F7F1B0
Copy OK
Track 4
Filename G:\FLAC\Placebo\Sleeping With Ghosts{Text}4 - Sleeping With Ghosts.wav
Pre-gap length 0:00:00.21
Peak level 90.5 %
Track quality 100.0 %
Test CRC 4F407201
Copy CRC 4F407201
Copy OK
Track 5
Filename G:\FLAC\Placebo\Sleeping With Ghosts{Text}5 - The Bitter End.wav
Peak level 94.7 %
Track quality 99.9 %
Test CRC C8838AA5
Copy CRC C8838AA5
Copy OK
Track 6
Filename G:\FLAC\Placebo\Sleeping With Ghosts{Text}6 - Something Rotten.wav
Peak level 91.3 %
Track quality 100.0 %
Test CRC DA5B08FB
Copy CRC DA5B08FB
Copy OK
Track 7
Filename G:\FLAC\Placebo\Sleeping With Ghosts{Text}7 - Plasticine.wav
Peak level 93.8 %
Track quality 100.0 %
Test CRC EFBBACF9
Copy CRC EFBBACF9
Copy OK
Track 8
Filename G:\FLAC\Placebo\Sleeping With Ghosts{Text}8 - Special Needs.wav
Pre-gap length 0:00:02.03
Peak level 83.5 %
Track quality 99.6 %
Test CRC DEED6D34
Copy CRC 898A7D67
Copy OK
Track 9
Filename G:\FLAC\Placebo\Sleeping With Ghosts{Text}9 - Iґll Be Yours.wav
Pre-gap length 0:00:00.57
Peak level 93.8 %
Track quality 99.9 %
Test CRC 3CBC4A3D
Copy CRC 3CBC4A3D
Copy OK
Track 10
Filename G:\FLAC\Placebo\Sleeping With Ghosts\10 - Second Sight.wav
Pre-gap length 0:00:01.18
Peak level 83.0 %
Track quality 99.9 %
Test CRC 8B1801C6
Copy CRC A05BB7C9
Copy OK
Track 11
Filename G:\FLAC\Placebo\Sleeping With Ghosts\11 - Protect Me From What I Want.wav
Pre-gap length 0:00:01.12
Peak level 81.1 %
Track quality 100.0 %
Test CRC 0CE675E4
Copy CRC 0CE675E4
Copy OK
Track 12
Filename G:\FLAC\Placebo\Sleeping With Ghosts\12 - Centrefolds.wav
Pre-gap length 0:00:03.05
Peak level 94.6 %
Track quality 99.8 %
Test CRC 21AC6387
Copy CRC 53FEF0A6
Copy OK
No errors occured
End of status report
EAC extraction logfile from 14. December 2006, 13:33 for CD
Placebo / Sleeping With Ghosts (Covers CD)
Used drive : _NEC DVD_RW ND-2500A Adapter: 1 ID: 2
Read mode : Secure with NO C2, accurate stream, disable cache
Read offset correction : 48
Overread into Lead-In and Lead-Out : No
Used output format : C:\Program Files\FLAC\flac.exe (User Defined Encoder)
128 kBit/s
Additional command line options : -V -8 -T "artist=%a" -T "title=%t" -T "album=%g" -T "date=%y" -T "tracknumber=%n" -T "genre=%m" %s
Other options :
Fill up missing offset samples with silence : Yes
Delete leading and trailing silent blocks : No
Native Win32 interface for Win NT & 2000
Track 1
Filename G:\FLAC\Placebo\Sleeping With Ghosts (Covers CD){Text}1 - Running Up That Hill (Kate Bush).wav
Pre-gap length 0:00:02.00
Peak level 93.9 %
Track quality 100.0 %
Test CRC 7254B078
Copy CRC 7254B078
Copy OK
Track 2
Filename G:\FLAC\Placebo\Sleeping With Ghosts (Covers CD){Text}2 - Where Is My Mind (Pixies).wav
Pre-gap length 0:00:02.56
Peak level 98.8 %
Track quality 100.0 %
Test CRC DEE77C51
Copy CRC DEE77C51
Copy OK
Track 3
Filename G:\FLAC\Placebo\Sleeping With Ghosts (Covers CD){Text}3 - Bigmouth Strikes Again (The Smiths).wav
Pre-gap length 0:00:02.32
Peak level 97.9 %
Track quality 100.0 %
Test CRC 06EDC10F
Copy CRC 06EDC10F
Copy OK
Track 4
Filename G:\FLAC\Placebo\Sleeping With Ghosts (Covers CD){Text}4 - Johnny And Mary (Robert Palmer).wav
Pre-gap length 0:00:01.12
Peak level 99.6 %
Track quality 100.0 %
Test CRC EBD72D02
Copy CRC EBD72D02
Copy OK
Track 5
Filename G:\FLAC\Placebo\Sleeping With Ghosts (Covers CD){Text}5 - 20th Century Boy (T-Rex).wav
Pre-gap length 0:00:01.35
Peak level 97.9 %
Track quality 99.9 %
Test CRC 40F0B588
Copy CRC 40F0B588
Copy OK
Track 6
Filename G:\FLAC\Placebo\Sleeping With Ghosts (Covers CD){Text}6 - The Ballad Of Melody Nelson (Serge Gaisbourg).wav
Pre-gap length 0:00:01.63
Peak level 98.7 %
Track quality 99.9 %
Test CRC 173EA19C
Copy CRC 173EA19C
Copy OK
Track 7
Filename G:\FLAC\Placebo\Sleeping With Ghosts (Covers CD){Text}7 - Holocaust (Alex Chilton).wav
Pre-gap length 0:00:01.13
Peak level 98.6 %
Track quality 100.0 %
Test CRC 24B8BB92
Copy CRC 24B8BB92
Copy OK
Track 8
Filename G:\FLAC\Placebo\Sleeping With Ghosts (Covers CD){Text}8 - I Feel You (Depeche Mode).wav
Pre-gap length 0:00:02.00
Peak level 98.6 %
Track quality 100.0 %
Test CRC B03AE5D9
Copy CRC B03AE5D9
Copy OK
Track 9
Filename G:\FLAC\Placebo\Sleeping With Ghosts (Covers CD){Text}9 - Daddy Cool (Boney M).wav
Pre-gap length 0:00:02.07
Peak level 94.7 %
Track quality 100.0 %
Test CRC 9F3B3890
Copy CRC 9F3B3890
Copy OK
Track 10
Filename G:\FLAC\Placebo\Sleeping With Ghosts (Covers CD)\10 - Jackie (Sinead OґConnor).wav
Pre-gap length 0:00:01.29
Peak level 97.9 %
Track quality 99.8 %
Test CRC 51E7C9BF
Copy CRC 51E7C9BF
Copy OK
No errors occured
End of status report
Дата выхода альбома: 25.10.04
Продолжительность: 01:04:07
Треклист:
01. 36 Degrees (3:07)
02. Teenage Angst (2:40)
03. Nancy Boy (3:19)
04. Bruise Pristine (3:36)
05. Pure Morning (3:59)
06. You Don't Care About Us (4:01)
07. Every You Every Me (3:34)
08. Without You I'm Nothing (feat. David Bowie) (4:14)
09. Taste In Men (3:59)
10. Slave To The Wage (3:46)
11. Special K (3:50)
12. Black-Eyed (3:44)
13. The Bitter End (3:11)
14. This Picture (3:35)
15. Special Needs (3:29)
16. English Summer Rain (3:10)
17. Protege Moi (3:14)
18. I Do (2:27)
19. Twenty Years (4:19)
EAC extraction logfile from 11. July 2006, 14:34 for CD
Placebo / Once More With Feeling (Singles 1996-2004)
Used drive : PIONEER DVD-RW DVR-111D Adapter: 1 ID: 0
Read mode : Secure with NO C2, accurate stream, disable cache
Read offset correction : 48
Overread into Lead-In and Lead-Out : No
Used output format : C:\Program Files\Exact Audio Copy\flac.exe (User Defined Encoder)
192 kBit/s
Additional command line options : -V -8 -T "artist=%a" -T "title=%t" -T "album=%g" -T "date=%y" -T "tracknumber=%n" -T "genre=%m" %s
Other options :
Fill up missing offset samples with silence : Yes
Delete leading and trailing silent blocks : No
Native Win32 interface for Win NT & 2000
Track 1
Filename C:\Documents and Settings\Scorpio\My Documents\My Music\Placebo - 2004 - Once More With Feeling (Singles 1996-2004){Text}1-36 Degrees.wav
Pre-gap length 0:00:02.00
Peak level 98.9 %
Track quality 100.0 %
Test CRC BE467419
Copy CRC BE467419
Copy OK
Track 2
Filename C:\Documents and Settings\Scorpio\My Documents\My Music\Placebo - 2004 - Once More With Feeling (Singles 1996-2004){Text}2-Teenage Angst.wav
Pre-gap length 0:00:00.68
Peak level 98.0 %
Track quality 99.9 %
Test CRC AA9E2C72
Copy CRC AA9E2C72
Copy OK
Track 3
Filename C:\Documents and Settings\Scorpio\My Documents\My Music\Placebo - 2004 - Once More With Feeling (Singles 1996-2004){Text}3-Nancy Boy.wav
Pre-gap length 0:00:00.19
Peak level 98.0 %
Track quality 100.0 %
Test CRC 7188B0DA
Copy CRC 7188B0DA
Copy OK
Track 4
Filename C:\Documents and Settings\Scorpio\My Documents\My Music\Placebo - 2004 - Once More With Feeling (Singles 1996-2004){Text}4-Bruise Pristine.wav
Pre-gap length 0:00:01.40
Peak level 98.8 %
Track quality 100.0 %
Test CRC CB24497A
Copy CRC CB24497A
Copy OK
Track 5
Filename C:\Documents and Settings\Scorpio\My Documents\My Music\Placebo - 2004 - Once More With Feeling (Singles 1996-2004){Text}5-Pure Morning.wav
Pre-gap length 0:00:00.24
Peak level 98.8 %
Track quality 100.0 %
Test CRC C441FF47
Copy CRC C441FF47
Copy OK
Track 6
Filename C:\Documents and Settings\Scorpio\My Documents\My Music\Placebo - 2004 - Once More With Feeling (Singles 1996-2004){Text}6-You Don't Care About Us.wav
Pre-gap length 0:00:01.12
Peak level 98.6 %
Track quality 99.9 %
Test CRC 9F9BEB94
Copy CRC 9F9BEB94
Copy OK
Track 7
Filename C:\Documents and Settings\Scorpio\My Documents\My Music\Placebo - 2004 - Once More With Feeling (Singles 1996-2004){Text}7-Every You Every Me.wav
Pre-gap length 0:00:00.24
Peak level 98.6 %
Track quality 100.0 %
Test CRC 4C0DEF7F
Copy CRC 4C0DEF7F
Copy OK
Track 8
Filename C:\Documents and Settings\Scorpio\My Documents\My Music\Placebo - 2004 - Once More With Feeling (Singles 1996-2004){Text}8-Without You I'm Nothing (feat. David Bowie).wav
Pre-gap length 0:00:01.18
Peak level 98.7 %
Track quality 100.0 %
Test CRC E2EA7DCB
Copy CRC E2EA7DCB
Copy OK
Track 9
Filename C:\Documents and Settings\Scorpio\My Documents\My Music\Placebo - 2004 - Once More With Feeling (Singles 1996-2004){Text}9-Taste In Men.wav
Pre-gap length 0:00:00.38
Peak level 98.6 %
Track quality 99.9 %
Test CRC 95AF9CE2
Copy CRC 95AF9CE2
Copy OK
Track 10
Filename C:\Documents and Settings\Scorpio\My Documents\My Music\Placebo - 2004 - Once More With Feeling (Singles 1996-2004)\10-Slave To The Wage.wav
Pre-gap length 0:00:02.05
Peak level 98.5 %
Track quality 100.0 %
Test CRC C3D7F365
Copy CRC C3D7F365
Copy OK
Track 11
Filename C:\Documents and Settings\Scorpio\My Documents\My Music\Placebo - 2004 - Once More With Feeling (Singles 1996-2004)\11-Special K.wav
Pre-gap length 0:00:01.35
Peak level 98.9 %
Track quality 99.9 %
Test CRC 409909F7
Copy CRC 409909F7
Copy OK
Track 12
Filename C:\Documents and Settings\Scorpio\My Documents\My Music\Placebo - 2004 - Once More With Feeling (Singles 1996-2004)\12-Black-Eyed.wav
Pre-gap length 0:00:01.30
Peak level 98.8 %
Track quality 99.9 %
Test CRC 65F2C84F
Copy CRC 65F2C84F
Copy OK
Track 13
Filename C:\Documents and Settings\Scorpio\My Documents\My Music\Placebo - 2004 - Once More With Feeling (Singles 1996-2004)\13-The Bitter End.wav
Pre-gap length 0:00:01.43
Peak level 94.7 %
Track quality 99.9 %
Test CRC C5ABBB2B
Copy CRC C5ABBB2B
Copy OK
Track 14
Filename C:\Documents and Settings\Scorpio\My Documents\My Music\Placebo - 2004 - Once More With Feeling (Singles 1996-2004)\14-This Picture.wav
Pre-gap length 0:00:01.05
Peak level 91.2 %
Track quality 100.0 %
Test CRC B081B646
Copy CRC B081B646
Copy OK
Track 15
Filename C:\Documents and Settings\Scorpio\My Documents\My Music\Placebo - 2004 - Once More With Feeling (Singles 1996-2004)\15-Special Needs.wav
Pre-gap length 0:00:01.22
Peak level 86.8 %
Track quality 100.0 %
Test CRC C56574B6
Copy CRC C56574B6
Copy OK
Track 16
Filename C:\Documents and Settings\Scorpio\My Documents\My Music\Placebo - 2004 - Once More With Feeling (Singles 1996-2004)\16-English Summer Rain.wav
Pre-gap length 0:00:01.33
Peak level 89.1 %
Track quality 99.9 %
Test CRC 10EA63C3
Copy CRC 10EA63C3
Copy OK
Track 17
Filename C:\Documents and Settings\Scorpio\My Documents\My Music\Placebo - 2004 - Once More With Feeling (Singles 1996-2004)\17-Protиge Moi.wav
Pre-gap length 0:00:01.07
Peak level 98.4 %
Track quality 100.0 %
Test CRC 76921113
Copy CRC 76921113
Copy OK
Track 18
Filename C:\Documents and Settings\Scorpio\My Documents\My Music\Placebo - 2004 - Once More With Feeling (Singles 1996-2004)\18-I Do.wav
Pre-gap length 0:00:01.10
Peak level 87.4 %
Track quality 99.9 %
Test CRC EF40054C
Copy CRC EF40054C
Copy OK
Track 19
Filename C:\Documents and Settings\Scorpio\My Documents\My Music\Placebo - 2004 - Once More With Feeling (Singles 1996-2004)\19-Twenty Years.wav
Pre-gap length 0:00:02.21
Peak level 98.7 %
Track quality 100.0 %
Test CRC E53FA5DC
Copy CRC E53FA5DC
Copy OK
No errors occured
End of status report
Дата выхода альбома: 13.03.06
Продолжительность: 00:48:03
Треклист:
01. Meds (2:55)
02. Infra-Red (3:16)
03. Drag (3:21)
04. Space Monkey (3:51)
05. Follow The Cops Back Home (4:40)
06. Post Blue (3:12)
07. Because I Want You (3:22)
08. Blind (4:01)
09. Pierrot The Clown (4:22)
10. Broken Promise (4:13)
11. One Of A Kind (3:21)
12. In The Cold Light Of Morning (3:53)
13. Song to Say Goodbye (3:36)
EAC extraction logfile from 15. November 2006, 20:52 for CD
Placebo / Meds
Used drive : TSSTcorpDVD+-RW TS-L532B Adapter: 1 ID: 0
Read mode : Secure with NO C2, accurate stream, disable cache
Read offset correction : 704
Overread into Lead-In and Lead-Out : No
Used output format : C:\Program Files\FLAC\flac.exe (User Defined Encoder)
320 kBit/s
Additional command line options : -V -8 -T "artist=%a" -T "title=%t" -T "album=%g" -T "date=%y" -T "tracknumber=%n" -T "genre=%m" %s
Other options :
Fill up missing offset samples with silence : Yes
Delete leading and trailing silent blocks : No
Native Win32 interface for Win NT & 2000
Track 1
Filename C:\Documents and Settings\Mark_2\Desktop\Torrents\Placebo - Meds{Text}1 - Meds.wav
Peak level 100.0 %
Track quality 100.0 %
Test CRC F1CC3DC0
Copy CRC F1CC3DC0
Copy OK
Track 2
Filename C:\Documents and Settings\Mark_2\Desktop\Torrents\Placebo - Meds{Text}2 - Infra-Red.wav
Peak level 98.9 %
Track quality 100.0 %
Test CRC EAA12003
Copy CRC EAA12003
Copy OK
Track 3
Filename C:\Documents and Settings\Mark_2\Desktop\Torrents\Placebo - Meds{Text}3 - Drag.wav
Peak level 98.8 %
Track quality 100.0 %
Test CRC E8B983AF
Copy CRC E8B983AF
Copy OK
Track 4
Filename C:\Documents and Settings\Mark_2\Desktop\Torrents\Placebo - Meds{Text}4 - Space Monkey.wav
Peak level 100.0 %
Track quality 100.0 %
Test CRC A6E81CC7
Copy CRC A6E81CC7
Copy OK
Track 5
Filename C:\Documents and Settings\Mark_2\Desktop\Torrents\Placebo - Meds{Text}5 - Follow The Cops Back Home.wav
Peak level 98.8 %
Track quality 99.9 %
Test CRC 31FD21F6
Copy CRC 31FD21F6
Copy OK
Track 6
Filename C:\Documents and Settings\Mark_2\Desktop\Torrents\Placebo - Meds{Text}6 - Post Blue.wav
Peak level 100.0 %
Track quality 100.0 %
Test CRC 32E9580A
Copy CRC 32E9580A
Copy OK
Track 7
Filename C:\Documents and Settings\Mark_2\Desktop\Torrents\Placebo - Meds{Text}7 - Because I Want You.wav
Peak level 100.0 %
Track quality 100.0 %
Test CRC B11FE163
Copy CRC B11FE163
Copy OK
Track 8
Filename C:\Documents and Settings\Mark_2\Desktop\Torrents\Placebo - Meds{Text}8 - Blind.wav
Peak level 100.0 %
Track quality 100.0 %
Test CRC 488315F0
Copy CRC 488315F0
Copy OK
Track 9
Filename C:\Documents and Settings\Mark_2\Desktop\Torrents\Placebo - Meds{Text}9 - Pierrot The Clown.wav
Peak level 99.9 %
Track quality 99.9 %
Test CRC 9524C6D7
Copy CRC 9524C6D7
Copy OK
Track 10
Filename C:\Documents and Settings\Mark_2\Desktop\Torrents\Placebo - Meds\10 - Broken Promise.wav
Peak level 99.9 %
Track quality 100.0 %
Test CRC AC214418
Copy CRC AC214418
Copy OK
Track 11
Filename C:\Documents and Settings\Mark_2\Desktop\Torrents\Placebo - Meds\11 - One Of A Kind.wav
Peak level 100.0 %
Track quality 100.0 %
Test CRC 1C6EE605
Copy CRC 1C6EE605
Copy OK
Track 12
Filename C:\Documents and Settings\Mark_2\Desktop\Torrents\Placebo - Meds\12 - In The Cold Light Of Morning.wav
Peak level 98.8 %
Track quality 100.0 %
Test CRC 88EE1B3F
Copy CRC 88EE1B3F
Copy OK
Track 13
Filename C:\Documents and Settings\Mark_2\Desktop\Torrents\Placebo - Meds\13 - Song to Say Goodbye.wav
Peak level 98.8 %
Track quality 99.9 %
Test CRC 11D7FAAE
Copy CRC 11D7FAAE
Copy OK
No errors occured
End of status report

apach
apach
вахвах.. в колекшн
Phenomen
Phenomen
А FLAC отличаеться чем нибудь от мп3 кроме размера?
Мишка1234
Мишка1234
=(((((((((((((((((((
Youdie
Youdie

Мишка1234 писал(а):

А FLAC отличаеться чем нибудь от мп3 кроме размера?
Вообще-то отличаются...Lossless (FLAC, APE, M4A) - это рип без потери качества, в отличии от mp3
apach
apach

Цитата:

А FLAC отличаеться чем нибудь от мп3 кроме размера?
ыыыыыыыыыыыыыыыы.
нет, просто по приколу качать больше мегабайт!!
chocolate milk
chocolate milk

Цитата:

M4A
это не лосслесc.
chocolate milk
chocolate milk
Ну просто есть люди которые во Флак мп3 переделовают что бы рейтинг поднять вот я и спросил чем отличаеться.
Мишка1234
Мишка1234
Мишка1234
что залюди интеренсо такие? полученый таким способом лослес не отличается от мп3 кроме размера.
Youdie
Youdie

chocolate milk писал(а):

Цитата:

M4A
это не лосслесc.
M4A это ALAC собственно Lossless
apach
apach

Мишка1234 писал(а):

Ну просто есть люди которые во Флак мп3 переделовают что бы рейтинг поднять вот я и спросил чем отличаеться.
EAC логи я просто так в описание пихаю?
apach
apach
apach

Цитата:

Apple Lossless (also known as Apple Lossless Encoder, ALE, or Apple Lossless Audio Codec, ALAC) is a Lossless audio codec developed by Apple Computer.

Цитата:

M4A is a file extension created by Apple Computer to distinguish MPEG4 files containing audio-only from files containing audio+video.
The container format is identical to MP4. Or, put in another way, it's an .MP4 with only an audio stream renamed to .M4A.

chocolate milk
chocolate milk
apach
Яж не о тебе. Я просто говорю что есть такие люди.
Мишка1234
Мишка1234
Мишка1234

Цитата:

А FLAC отличаеться чем нибудь от мп3 кроме размера?

Цитата:

... вот я и спросил чем отличаеться.
если бы ты знал, ты бы спросил не транскод ли это.
chocolate milk
chocolate milk
Chocolate Milk откройте любую ALAC раздачу (хоть на торрентс.ру) и посмотрите на расширение - оно будет .m4a
apach
apach
то, что ты имеешь ввиду и называется алак, а не м4а.
м4а это просто контейнер.
chocolate milk
chocolate milk
ах да, точно, не подумал :)
apach
apach
Спасибо огромное!
Алексей-alex
Алексей-alex
Hfplfxe!!! что означает по "загонски" - Раздачу!!!
Depeche
Depeche
Собсно а куда все пропало?)
Афтар ушол с раздачи? если да то я перевыложу
An1me
An1me

Имя:
E-mail (не обязательно):
Используется для уведомления о правильности ответа.
адм