как разбогатеть как стать богатым

(Metalcore, Alternative) Тонкая Красная Нить - Саундтрек Моей Жизни - 2009, FLAC (tracks), lossless

Тонкая Красная Нить - Саундтрек Моей Жизни

Страна: Украина
Жанр: Metalcore, Alternative
Год выпуска: 2009
Формат: FLAC (tracks)
Битрейт аудио: lossless
Продолжительность: 36:12
Трэклист:
01/10. Интро (0:33)
02/10. Отпуская Боль (3:51)
03/10. Седьмое Небо (3:04)
04/10. Чужой (3:10)
05/10. Обжигающий Холод (3:59)
06/10. Закрываю Глаза (5:37)
07/10. Крики (3:33)
08/10. Осень (4:03)
09/10. Прости (3:09)
10/10. Одиночество (5:18)
Состав:
Евгений (JJ) Тютюнник - вокал
Дмитрий Анисимов - гитара
Вячеслав Бровко - гитара
Андрей (Gavaec) Бахнев - бас
Антон Кубрак - ударные (сессионно)
Дата образования виа - 20 августа 2005 года. Почему именно эта дата – не знают даже старожилы группы, просто дата! Начинается все с того, что покинувший группу "The Switch" басист Денис Балон решает найти себя на новом поприще и начинает стучать в барабаны. Его одиночество разделяет феодосийский парниша – басист Андрей Бахнев, на сегодня единственный неизменный участник группы. К ним присоединяется гитарист Артем Швыдченко. Таким составом начинаются репетиции 2005 года... В октябре ребята находят вокалиста – Женю Тютюнника и отыгрывают свой первый концерт. На роль второго гитариста приглашается Митя Анисимов, который параллельно играет в "Собаки в Космосе".

И тут же первые потери – непонятно на кого команду оставляет Артем! С этого момента у Нити – новый этап развития, из кавер-проекта группа превращается в банду с собственной идеей и стилем, которая стабильно выступает в Харькове.

Осень 2006 была урожайной на события - в ТКН не надолго приходит второй вокалист - Оля Соколинская, а так же группа празднует приобретение второго гитариста - Славу Бровко, бывшего гитариста "7th Sky".

Вроде бы все в сборе – группа набирает обороты и выступает в Харькове, Житомире и Крыму. Стиль становится более жестким. Своеобразным итогом года становится совместный концерт с группой "MAMAY"(Питер). После этого барабанщик Денис расставляет приоритеты не в пользу группы, и ТКН временно останавливается в своем развитии.

В сентябре 2007 снова происходят изменения: Денис Балон становится менеджером, а за барабаны садится Юра Салтыков. Стиль команды окончательно формируется и выливается в запись ЕР-альбома под названием "106". Группа активно работает над новой концертной программой – ребята учатся петь и играть.

Сегодня ТКН – это не только ценный мех! То бишь не только сплоченный коллектив, но и музыканты, которые имеют огромный творческий потенциал и стремятся его реализовать. Их целью не является мировое признание, они просто делают свое дело и получают от этого удовольствие.

Exact Audio Copy V0.99 prebeta 4 from 23. January 2008

Отчёт EAC об извлечении, выполненном 12. октября 2009, 15:44

Unknown Artist / Unknown Title

Дисковод: AlViDrv BDDVDROM Adapter: 5 ID: 0

Режим чтения : Достоверность
Использование точного потока : Да
Отключение кэша аудио : Да
Использование указателей C2 : Нет

Коррекция смещения при чтении : 0
Способность читать области Lead-in и Lead-out : Нет
Заполнение пропущенных сэмплов тишиной : Да
Удаление блоков с тишиной в начале и конце : Нет
При вычислениях CRC использовались нулевые сэмплы : Да
Интерфейс : Встроенный Win32-интерфейс для Win NT/2000
Обработка зазоров : Добавлено к предыдущему треку

Выходной формат : Пользовательский кодировщик
Выбранный битрейт : 128 kBit/s
Качество : Высокий
Добавление ID3-тэга : Нет
Утилита сжатия : C:\Program Files\Exact Audio Copy\Flac\flac.exe
Дополнительные параметры : -8 -V -T "ARTIST=%a" -T "TITLE=%t" -T "ALBUM=%g" -T "DATE=%y" -T "TRACKNUMBER=%n" -T "GENRE=%m" -T "COMMENT=EAC FLAC -8" %s

TOC извлечённого CD

Трек | Старт | Длительность | Начальный сектор | Конечный сектор
---------------------------------------------------------------------
1 | 0:00.00 | 0:32.64 | 0 | 2463
2 | 0:32.64 | 3:50.65 | 2464 | 19778
3 | 4:23.54 | 3:03.39 | 19779 | 33542
4 | 7:27.18 | 3:10.31 | 33543 | 47823
5 | 10:37.49 | 3:58.68 | 47824 | 65741
6 | 14:36.42 | 5:37.02 | 65742 | 91018
7 | 20:13.44 | 3:33.26 | 91019 | 107019
8 | 23:46.70 | 4:03.16 | 107020 | 125260
9 | 27:50.11 | 3:08.66 | 125261 | 139426
10 | 30:59.02 | 5:17.72 | 139427 | 163273

Трек 1

Имя файла F:\ -= TemP =-\+ Авторские\ТонкаяКраснаяНить\2009 - Саундтрек Моей Жизни{Text}1. Track01.wav

Длина предзазора 0:00:02.00

Пиковый уровень 72.4 %
Качество трека 100.0 %
CRC теста EFC7A575
CRC копии EFC7A575
Копирование... OK

Трек 2

Имя файла F:\ -= TemP =-\+ Авторские\ТонкаяКраснаяНить\2009 - Саундтрек Моей Жизни{Text}2. Track02.wav

Пиковый уровень 96.6 %
Качество трека 100.0 %
CRC теста 2428045D
CRC копии 2428045D
Копирование... OK

Трек 3

Имя файла F:\ -= TemP =-\+ Авторские\ТонкаяКраснаяНить\2009 - Саундтрек Моей Жизни{Text}3. Track03.wav

Пиковый уровень 96.6 %
Качество трека 100.0 %
CRC теста 628C9DBF
CRC копии 628C9DBF
Копирование... OK

Трек 4

Имя файла F:\ -= TemP =-\+ Авторские\ТонкаяКраснаяНить\2009 - Саундтрек Моей Жизни{Text}4. Track04.wav

Пиковый уровень 96.6 %
Качество трека 100.0 %
CRC теста EB694260
CRC копии EB694260
Копирование... OK

Трек 5

Имя файла F:\ -= TemP =-\+ Авторские\ТонкаяКраснаяНить\2009 - Саундтрек Моей Жизни{Text}5. Track05.wav

Длина предзазора 0:00:01.65

Пиковый уровень 96.7 %
Качество трека 100.0 %
CRC теста A9CB0C6E
CRC копии A9CB0C6E
Копирование... OK

Трек 6

Имя файла F:\ -= TemP =-\+ Авторские\ТонкаяКраснаяНить\2009 - Саундтрек Моей Жизни{Text}6. Track06.wav

Длина предзазора 0:00:05.77

Пиковый уровень 96.6 %
Качество трека 99.9 %
CRC теста FDD4D882
CRC копии FDD4D882
Копирование... OK

Трек 7

Имя файла F:\ -= TemP =-\+ Авторские\ТонкаяКраснаяНить\2009 - Саундтрек Моей Жизни{Text}7. Track07.wav

Длина предзазора 0:00:01.81

Пиковый уровень 96.6 %
Качество трека 100.0 %
CRC теста CB3E438F
CRC копии CB3E438F
Копирование... OK

Трек 8

Имя файла F:\ -= TemP =-\+ Авторские\ТонкаяКраснаяНить\2009 - Саундтрек Моей Жизни{Text}8. Track08.wav

Пиковый уровень 96.6 %
Качество трека 100.0 %
CRC теста 784C1393
CRC копии 784C1393
Копирование... OK

Трек 9

Имя файла F:\ -= TemP =-\+ Авторские\ТонкаяКраснаяНить\2009 - Саундтрек Моей Жизни{Text}9. Track09.wav

Длина предзазора 0:00:01.84

Пиковый уровень 96.6 %
Качество трека 100.0 %
CRC теста 1DC4DD72
CRC копии 1DC4DD72
Копирование... OK

Трек 10

Имя файла F:\ -= TemP =-\+ Авторские\ТонкаяКраснаяНить\2009 - Саундтрек Моей Жизни\10. Track10.wav

Длина предзазора 0:00:03.62

Пиковый уровень 96.6 %
Качество трека 100.0 %
CRC теста B9C0C11F
CRC копии B9C0C11F
Копирование... OK

Ошибок не произошло

Конец отчёта

apach
apach
пасиба! очень нравиться)
Muzikant-tlt​
Muzikant-tlt​
спасибо
sergey
sergey
спасибо !
|Obsidian Destroyer|
|Obsidian Destroyer|

Имя:
E-mail (не обязательно):
Используется для уведомления о правильности ответа.
адм