как разбогатеть как стать богатым

(Deathcore) Molotov Solution - Molotov Solution - 2008, FLAC (tracks), lossless

Molotov Solution - Molotov Solution

Страна: USA
Жанр: Deathcore
Год выпуска: 2008
Формат: FLAC (tracks)
Битрейт аудио: lossless
Продолжительность: 40:00
Трэклист:
01. (02:00) Introduction
02. (04:29) Corporatocracy
03. (03:15) An Even More Inconvenient Truth
04. (04:07) End Game
05. (03:11) Psych-War
06. (01:36) Interlude
07. (04:30) Prison Planet
08. (02:39) The Myth Of Human Progress
09. (03:47) Order Out Of Chaos
10. (10:25) Dark Alliance
Состав группы:
Robbie - Guitar
Joe - Guitar
Jeremy - Drums
Nick - Vocals
Anthony - Bass
Exact Audio Copy V0.99 prebeta 4 from 23. January 2008

EAC extraction logfile from 3. August 2008, 17:04

Molotov Solution / Molotov Solution

Used drive : _NEC DVD+-RW ND-6650A Adapter: 0 ID: 1

Read mode : Secure
Utilize accurate stream : Yes
Defeat audio cache : Yes
Make use of C2 pointers : No

Read offset correction : 48
Overread into Lead-In and Lead-Out : No
Fill up missing offset samples with silence : Yes
Delete leading and trailing silent blocks : No
Null samples used in CRC calculations : Yes
Used interface : Installed external ASPI interface
Gap handling : Appended to previous track

Used output format : User Defined Encoder
Selected bitrate : 128 kBit/s
Quality : High
Add ID3 tag : No
Command line compressor : C:\Programme\Exact Audio Copy\flac-1.1.4-win\flac-1.1.4-win\bin\flac.exe
Additional command line options : -8 -A tukey(0.25) -A gauss(0.1875) -b 4096 -V -T "artist=%a" -T "title=%t" -T "album=%g" -T "date=%y" -T "tracknumber=%n" -T "genre=%m" %s --sector-align

TOC of the extracted CD

Track | Start | Length | Start sector | End sector
---------------------------------------------------------
1 | 0:00.00 | 2:00.05 | 0 | 9004
2 | 2:00.05 | 4:28.65 | 9005 | 29169
3 | 6:28.70 | 3:15.18 | 29170 | 43812
4 | 9:44.13 | 4:06.72 | 43813 | 62334
5 | 13:51.10 | 3:11.24 | 62335 | 76683
6 | 17:02.34 | 1:35.72 | 76684 | 83880
7 | 18:38.31 | 4:30.12 | 83881 | 104142
8 | 23:08.43 | 2:39.03 | 104143 | 116070
9 | 25:47.46 | 3:47.17 | 116071 | 133112
10 | 29:34.63 | 10:25.16 | 133113 | 180003

Track 1

Filename G:\-downloads-\-eac-\-flac-\Molotov Solution - Molotov Solution{Text}1 - Molotov Solution - Introduction.wav

Pre-gap length 0:00:02.00

Peak level 99.2 %
Track quality 100.0 %
Test CRC 24DDED93
Copy CRC 24DDED93
Track not present in AccurateRip database
Copy OK

Track 2

Filename G:\-downloads-\-eac-\-flac-\Molotov Solution - Molotov Solution{Text}2 - Molotov Solution - Corporatocracy.wav

Peak level 99.3 %
Track quality 100.0 %
Test CRC FBF6489D
Copy CRC FBF6489D
Track not present in AccurateRip database
Copy OK

Track 3

Filename G:\-downloads-\-eac-\-flac-\Molotov Solution - Molotov Solution{Text}3 - Molotov Solution - An Even More Inconvenient Truth.wav

Peak level 99.3 %
Track quality 99.9 %
Test CRC 71893CCF
Copy CRC 71893CCF
Track not present in AccurateRip database
Copy OK

Track 4

Filename G:\-downloads-\-eac-\-flac-\Molotov Solution - Molotov Solution{Text}4 - Molotov Solution - End Game.wav

Peak level 99.4 %
Track quality 100.0 %
Test CRC E283D068
Copy CRC E283D068
Track not present in AccurateRip database
Copy OK

Track 5

Filename G:\-downloads-\-eac-\-flac-\Molotov Solution - Molotov Solution{Text}5 - Molotov Solution - Psych-War.wav

Peak level 99.2 %
Track quality 100.0 %
Test CRC FB5E7B58
Copy CRC FB5E7B58
Track not present in AccurateRip database
Copy OK

Track 6

Filename G:\-downloads-\-eac-\-flac-\Molotov Solution - Molotov Solution{Text}6 - Molotov Solution - Interlude.wav

Peak level 99.2 %
Track quality 99.8 %
Test CRC E17EE8AE
Copy CRC E17EE8AE
Track not present in AccurateRip database
Copy OK

Track 7

Filename G:\-downloads-\-eac-\-flac-\Molotov Solution - Molotov Solution{Text}7 - Molotov Solution - Prison Planet.wav

Peak level 99.3 %
Track quality 100.0 %
Test CRC 09DD2138
Copy CRC 09DD2138
Track not present in AccurateRip database
Copy OK

Track 8

Filename G:\-downloads-\-eac-\-flac-\Molotov Solution - Molotov Solution{Text}8 - Molotov Solution - The Myth Of Human Progress.wav

Peak level 99.2 %
Track quality 99.9 %
Test CRC D2DECC0C
Copy CRC D2DECC0C
Track not present in AccurateRip database
Copy OK

Track 9

Filename G:\-downloads-\-eac-\-flac-\Molotov Solution - Molotov Solution{Text}9 - Molotov Solution - Order Out Of Chaos.wav

Peak level 99.3 %
Track quality 100.0 %
Test CRC 2A29A2E4
Copy CRC 2A29A2E4
Track not present in AccurateRip database
Copy OK

Track 10

Filename G:\-downloads-\-eac-\-flac-\Molotov Solution - Molotov Solution\10 - Molotov Solution - Dark Alliance.wav

Peak level 99.3 %
Track quality 100.0 %
Test CRC 32088E27
Copy CRC 32088E27
Track not present in AccurateRip database
Copy OK

None of the tracks are present in the AccurateRip database

No errors occurred

End of status report

apach
apach

Имя:
E-mail (не обязательно):
Используется для уведомления о правильности ответа.
адм