как разбогатеть как стать богатым

(Deathcore) Molotov Solution - The Harbinger - 2009, FLAC (tracks), lossless

Molotov Solution - The Harbinger

Страна: USA
Жанр: Deathcore
Год выпуска: 2009
Формат: FLAC (tracks)
Битрейт аудио: lossless
Продолжительность: 41:43
Трэклист:
01. Warlords (3:26)
02. Rule by Secrecy (3:54)
03. Only the Dead (3:09)
04. Atrum Inritus (2:20)
05. Corpus Imperium (4:20)
06. Monolithic Apparatus (3:16)
07. The Harbinger (3:20)
08. Enslaved (4:08)
09. Awakening (3:42)
10. Living Proof (3:16)
11. The Dawn of Ascendency (6:52)
Состав:
Nick Arthur - Vocals
Robbie Pina - Guitars
Sims Collison - Guitars
Kevin Oakley - Bass
Jeremy Johnson - Drums
Exact Audio Copy V0.99 prebeta 4 from 23. January 2008

EAC extraction logfile from 9. June 2009, 14:41

Molotov Solution / The Harbinger

Used drive : TEAC DVD+-RW DVW28SLC Adapter: 1 ID: 0

Read mode : Secure
Utilize accurate stream : Yes
Defeat audio cache : Yes
Make use of C2 pointers : No

Read offset correction : 48
Overread into Lead-In and Lead-Out : No
Fill up missing offset samples with silence : Yes
Delete leading and trailing silent blocks : No
Null samples used in CRC calculations : Yes
Used interface : Installed external ASPI interface
Gap handling : Appended to previous track

Used output format : User Defined Encoder
Selected bitrate : 192 kBit/s
Quality : High
Add ID3 tag : No
Command line compressor : C:\Program Files\Exact Audio Copy\flac.exe
Additional command line options : -V -8 -T "artist=%a" -T "title=%t" -T "album=%g" -T "date=%y" -T "tracknumber=%n" -T "genre=%m" %s

TOC of the extracted CD

Track | Start | Length | Start sector | End sector
---------------------------------------------------------
1 | 0:00.00 | 3:25.32 | 0 | 15406
2 | 3:25.32 | 3:54.20 | 15407 | 32976
3 | 7:19.52 | 3:08.44 | 32977 | 47120
4 | 10:28.21 | 2:19.63 | 47121 | 57608
5 | 12:48.09 | 4:20.27 | 57609 | 77135
6 | 17:08.36 | 3:16.08 | 77136 | 91843
7 | 20:24.44 | 3:20.08 | 91844 | 106851
8 | 23:44.52 | 4:07.62 | 106852 | 125438
9 | 27:52.39 | 3:42.02 | 125439 | 142090
10 | 31:34.41 | 3:16.70 | 142091 | 156860
11 | 34:51.36 | 6:51.58 | 156861 | 187743

Track 1

Filename C:\Users\Ryan\Documents\The Harbinger [FLAC]{Text}1 - Molotov Solution - Warlords.wav

Pre-gap length 0:00:02.00

Peak level 99.1 %
Track quality 100.0 %
Test CRC B8D1EA56
Copy CRC B8D1EA56
Track not present in AccurateRip database
Copy OK

Track 2

Filename C:\Users\Ryan\Documents\The Harbinger [FLAC]{Text}2 - Molotov Solution - Rule By Secrecy.wav

Peak level 99.1 %
Track quality 100.0 %
Test CRC F5B76039
Copy CRC F5B76039
Track not present in AccurateRip database
Copy OK

Track 3

Filename C:\Users\Ryan\Documents\The Harbinger [FLAC]{Text}3 - Molotov Solution - Only The Dead.wav

Peak level 99.1 %
Track quality 100.0 %
Test CRC 2A00AC0B
Copy CRC 2A00AC0B
Track not present in AccurateRip database
Copy OK

Track 4

Filename C:\Users\Ryan\Documents\The Harbinger [FLAC]{Text}4 - Molotov Solution - Atrum Inritus.wav

Peak level 99.1 %
Track quality 100.0 %
Test CRC 3FE45D47
Copy CRC 3FE45D47
Track not present in AccurateRip database
Copy OK

Track 5

Filename C:\Users\Ryan\Documents\The Harbinger [FLAC]{Text}5 - Molotov Solution - Corpus Imperium.wav

Peak level 99.1 %
Track quality 100.0 %
Test CRC 71808F4A
Copy CRC 71808F4A
Track not present in AccurateRip database
Copy OK

Track 6

Filename C:\Users\Ryan\Documents\The Harbinger [FLAC]{Text}6 - Molotov Solution - Monolithic Apparatus.wav

Peak level 99.1 %
Track quality 100.0 %
Test CRC A563DC06
Copy CRC A563DC06
Track not present in AccurateRip database
Copy OK

Track 7

Filename C:\Users\Ryan\Documents\The Harbinger [FLAC]{Text}7 - Molotov Solution - The Harbinger.wav

Peak level 99.1 %
Track quality 100.0 %
Test CRC DB47712F
Copy CRC DB47712F
Track not present in AccurateRip database
Copy OK

Track 8

Filename C:\Users\Ryan\Documents\The Harbinger [FLAC]{Text}8 - Molotov Solution - Enslaved.wav

Peak level 99.1 %
Track quality 100.0 %
Test CRC 7B87C173
Copy CRC 7B87C173
Track not present in AccurateRip database
Copy OK

Track 9

Filename C:\Users\Ryan\Documents\The Harbinger [FLAC]{Text}9 - Molotov Solution - Awakening.wav

Peak level 99.1 %
Track quality 100.0 %
Test CRC 18FA8D72
Copy CRC 18FA8D72
Track not present in AccurateRip database
Copy OK

Track 10

Filename C:\Users\Ryan\Documents\The Harbinger [FLAC]\10 - Molotov Solution - Living Proof.wav

Peak level 99.1 %
Track quality 100.0 %
Test CRC 80E0E10D
Copy CRC 80E0E10D
Track not present in AccurateRip database
Copy OK

Track 11

Filename C:\Users\Ryan\Documents\The Harbinger [FLAC]\11 - Molotov Solution - The Dawn Of Ascendency.wav

Peak level 99.1 %
Track quality 99.9 %
Test CRC 244BCA4D
Copy CRC 244BCA4D
Track not present in AccurateRip database
Copy OK

None of the tracks are present in the AccurateRip database

No errors occurred

End of status report

apach
apach
мммммм ^_^
первый,спс
TouchMe
TouchMe
пожалуйста )
apach
apach

Имя:
E-mail (не обязательно):
Используется для уведомления о правильности ответа.
адм