как разбогатеть как стать богатым

(Deathcore\Technical Death) Neverending War - Muted - 2009, FLAC (tracks), lossless

Neverending War - Muted

Страна: Russia
Жанр: Deathcore\Technical Death
Год выпуска: 2009
Формат: FLAC (tracks)
Битрейт аудио: lossless
Продолжительность: 30:14
Трэклист:
01. (02:33) Face Us The Truth
02. (04:07) Flawless Slavery
03. (03:37) Studied Indifference
04. (01:37) Kurtosis Of Frequency Curve
05. (04:04) Atrophied
06. (02:44) Sorrow Of Humanity
07. (03:08) Washed Off By Blood
08. (04:37) Mechanical Toy In The People's Country
09. (03:48) Without Suspecting
Состав группы:
Максим Sit - vocal
Максим Емельянов - guitar
Алексей Fruity - guitar
Андрей ЭйСи - bass
Антон Семенычев - drums
Exact Audio Copy V0.99 prebeta 5 from 4. May 2009

EAC extraction logfile from 23. October 2009, 16:55

Neverending War / Muted

Used drive : Optiarc DVD RW AD-7173A Adapter: 0 ID: 1

Read mode : Secure
Utilize accurate stream : Yes
Defeat audio cache : Yes
Make use of C2 pointers : No

Read offset correction : 48
Overread into Lead-In and Lead-Out : No
Fill up missing offset samples with silence : Yes
Delete leading and trailing silent blocks : No
Null samples used in CRC calculations : Yes
Used interface : Installed external ASPI interface
Gap handling : Appended to previous track

Used output format : User Defined Encoder
Selected bitrate : 320 kBit/s
Quality : High
Add ID3 tag : No
Command line compressor : D:\Program Files\Exact Audio Copy\Flac\flac.exe
Additional command line options : -V -8 -T "artist=%a" -T "title=%t" -T "album=%g" -T "date=%y" -T "tracknumber=%n" -T "genre=%m" %s

TOC of the extracted CD

Track | Start | Length | Start sector | End sector
---------------------------------------------------------
1 | 0:00.00 | 2:33.37 | 0 | 11511
2 | 2:33.37 | 4:06.61 | 11512 | 30022
3 | 6:40.23 | 3:37.36 | 30023 | 46333
4 | 10:17.59 | 1:36.38 | 46334 | 53571
5 | 11:54.22 | 4:03.45 | 53572 | 71841
6 | 15:57.67 | 2:44.09 | 71842 | 84150
7 | 18:42.01 | 3:08.01 | 84151 | 98251
8 | 21:50.02 | 4:36.38 | 98252 | 118989
9 | 26:26.40 | 3:47.72 | 118990 | 136086

Track 1

Filename D:\EAC RIPS{Text}1. Face Us The Truth - Neverending War.wav

Pre-gap length 0:00:02.00

Peak level 100.0 %
Track quality 100.0 %
Test CRC 8AC158B3
Copy CRC 8AC158B3
Track not present in AccurateRip database
Copy OK

Track 2

Filename D:\EAC RIPS{Text}2. Flawless Slavery - Neverending War.wav

Peak level 100.0 %
Track quality 100.0 %
Test CRC 344B4918
Copy CRC 344B4918
Track not present in AccurateRip database
Copy OK

Track 3

Filename D:\EAC RIPS{Text}3. Studied Indifference - Neverending War.wav

Peak level 100.0 %
Track quality 99.9 %
Test CRC FE9DCD65
Copy CRC FE9DCD65
Track not present in AccurateRip database
Copy OK

Track 4

Filename D:\EAC RIPS{Text}4. Kurtosis Of Frequency Curve - Neverending War.wav

Peak level 100.0 %
Track quality 100.0 %
Test CRC 1A259415
Copy CRC 1A259415
Track not present in AccurateRip database
Copy OK

Track 5

Filename D:\EAC RIPS{Text}5. Atrophied - Neverending War.wav

Peak level 100.0 %
Track quality 100.0 %
Test CRC 7D45CA3C
Copy CRC 7D45CA3C
Track not present in AccurateRip database
Copy OK

Track 6

Filename D:\EAC RIPS{Text}6. Sorrow Of Humanity - Neverending War.wav

Peak level 100.0 %
Track quality 100.0 %
Test CRC 1EFCA47C
Copy CRC 1EFCA47C
Track not present in AccurateRip database
Copy OK

Track 7

Filename D:\EAC RIPS{Text}7. Washed Off By Blood - Neverending War.wav

Peak level 100.0 %
Track quality 100.0 %
Test CRC FC14402F
Copy CRC FC14402F
Track not present in AccurateRip database
Copy OK

Track 8

Filename D:\EAC RIPS{Text}8. Mechanical Toy In The People's Country - Neverending War.wav

Peak level 100.0 %
Track quality 100.0 %
Test CRC 96D19E05
Copy CRC 96D19E05
Track not present in AccurateRip database
Copy OK

Track 9

Filename D:\EAC RIPS{Text}9. Without Suspecting - Neverending War.wav

Peak level 100.0 %
Track quality 100.0 %
Test CRC 866FFAE0
Copy CRC 866FFAE0
Track not present in AccurateRip database
Copy OK

None of the tracks are present in the AccurateRip database

No errors occurred

End of status report

apach
apach
повтор
SmoKe
SmoKe
да ну?
Bon_Scott
Bon_Scott
SmoKe
да ты что
apach
apach
Офигеная группа! ay
Destroy
Destroy
Destroy
согласен)
apach
apach

Имя:
E-mail (не обязательно):
Используется для уведомления о правильности ответа.
адм