как разбогатеть как стать богатым

(Melodic Death) Threat Signal - Vigilance - 2009, FLAC (tracks), lossless

Threat Signal - Vigilance

Страна: Canada
Жанр: Melodic Death
Год выпуска: 2009
Формат: FLAC (tracks)
Битрейт аудио: lossless
Продолжительность: 55:41
Трэклист:
01. (04:11) Afterlife
02. (04:40) Through My Eyes
03. (04:05) The Beginning Of The End
04. (04:26) United We Stand
05. (04:10) Beyond Recognition
06. (04:57) Another Source Of Light
07. (03:41) Hate Machine
08. (03:23) Severed
09. (05:09) Lost
10. (03:15) Revision
11. (03:32) In Repair
12. (04:25) Escape From Reality
13. (05:50) To Remember
Состав группы:
Jon Howard - Vocals
Travis Montgomery - Guitars
Adam Weber - Guitars
Pat Kavanagh - Bass
Norman Killeen - Drums
Exact Audio Copy V0.99 prebeta 5 from 4. May 2009

EAC extraction logfile from 8. September 2009, 11:45

Threat Signal / Vigilance

Used drive : TSSTcorpCDDVDW SH-S223F Adapter: 5 ID: 2

Read mode : Secure
Utilize accurate stream : Yes
Defeat audio cache : Yes
Make use of C2 pointers : No

Read offset correction : 6
Overread into Lead-In and Lead-Out : No
Fill up missing offset samples with silence : Yes
Delete leading and trailing silent blocks : No
Null samples used in CRC calculations : Yes
Used interface : Native Win32 interface for Win NT & 2000
Gap handling : Appended to previous track

Used output format : User Defined Encoder
Selected bitrate : 320 kBit/s
Quality : High
Add ID3 tag : No
Command line compressor : C:\Program Files\Exact Audio Copy\FLAC\FLAC.EXE
Additional command line options : -V -8 -T "artist=%a" -T "title=%t" -T "album=%g" -T "date=%y" -T "tracknumber=%n" -T "genre=%m" %s

TOC of the extracted CD

Track | Start | Length | Start sector | End sector
---------------------------------------------------------
1 | 0:00.00 | 4:10.47 | 0 | 18796
2 | 4:10.47 | 4:39.69 | 18797 | 39790
3 | 8:50.41 | 4:04.67 | 39791 | 58157
4 | 12:55.33 | 4:25.44 | 58158 | 78076
5 | 17:21.02 | 4:09.66 | 78077 | 96817
6 | 21:30.68 | 4:57.21 | 96818 | 119113
7 | 26:28.14 | 3:41.07 | 119114 | 135695
8 | 30:09.21 | 3:22.40 | 135696 | 150885
9 | 33:31.61 | 5:08.39 | 150886 | 174024
10 | 38:40.25 | 3:14.63 | 174025 | 188637
11 | 41:55.13 | 3:32.20 | 188638 | 204557
12 | 45:27.33 | 4:24.72 | 204558 | 224429
13 | 49:52.30 | 5:49.44 | 224430 | 250648

Track 1

Filename D:\FTP\FLAC\Threat_Signal-Vigilance-2009{Text}1-Threat Signal-Afterlife.wav

Pre-gap length 0:00:02.00

Peak level 100.0 %
Track quality 100.0 %
Test CRC 226677F3
Copy CRC 226677F3
Track not present in AccurateRip database
Copy OK

Track 2

Filename D:\FTP\FLAC\Threat_Signal-Vigilance-2009{Text}2-Threat Signal-Through My Eyes.wav

Pre-gap length 0:00:02.00

Peak level 100.0 %
Track quality 99.9 %
Test CRC E370E8B4
Copy CRC E370E8B4
Track not present in AccurateRip database
Copy OK

Track 3

Filename D:\FTP\FLAC\Threat_Signal-Vigilance-2009{Text}3-Threat Signal-The Beginning Of The End.wav

Pre-gap length 0:00:02.00

Peak level 100.0 %
Track quality 100.0 %
Test CRC 5A5532D5
Copy CRC 5A5532D5
Track not present in AccurateRip database
Copy OK

Track 4

Filename D:\FTP\FLAC\Threat_Signal-Vigilance-2009{Text}4-Threat Signal-United We Stand.wav

Pre-gap length 0:00:02.00

Peak level 100.0 %
Track quality 100.0 %
Test CRC B6157EF8
Copy CRC B6157EF8
Track not present in AccurateRip database
Copy OK

Track 5

Filename D:\FTP\FLAC\Threat_Signal-Vigilance-2009{Text}5-Threat Signal-Beyond Recognition.wav

Pre-gap length 0:00:02.00

Peak level 100.0 %
Track quality 100.0 %
Test CRC 017410F3
Copy CRC 017410F3
Track not present in AccurateRip database
Copy OK

Track 6

Filename D:\FTP\FLAC\Threat_Signal-Vigilance-2009{Text}6-Threat Signal-Another Source Of Light.wav

Pre-gap length 0:00:02.00

Peak level 100.0 %
Track quality 100.0 %
Test CRC D87BB15F
Copy CRC D87BB15F
Track not present in AccurateRip database
Copy OK

Track 7

Filename D:\FTP\FLAC\Threat_Signal-Vigilance-2009{Text}7-Threat Signal-Hate Machine.wav

Pre-gap length 0:00:02.00

Peak level 100.0 %
Track quality 100.0 %
Test CRC 4D092955
Copy CRC 4D092955
Track not present in AccurateRip database
Copy OK

Track 8

Filename D:\FTP\FLAC\Threat_Signal-Vigilance-2009{Text}8-Threat Signal-Severed.wav

Pre-gap length 0:00:02.00

Peak level 100.0 %
Track quality 100.0 %
Test CRC 2E41EF55
Copy CRC 2E41EF55
Track not present in AccurateRip database
Copy OK

Track 9

Filename D:\FTP\FLAC\Threat_Signal-Vigilance-2009{Text}9-Threat Signal-Lost.wav

Pre-gap length 0:00:02.00

Peak level 100.0 %
Track quality 100.0 %
Test CRC E3E1A1C8
Copy CRC E3E1A1C8
Track not present in AccurateRip database
Copy OK

Track 10

Filename D:\FTP\FLAC\Threat_Signal-Vigilance-2009\10-Threat Signal-Revision.wav

Pre-gap length 0:00:02.00

Peak level 100.0 %
Track quality 100.0 %
Test CRC 3BAB4764
Copy CRC 3BAB4764
Track not present in AccurateRip database
Copy OK

Track 11

Filename D:\FTP\FLAC\Threat_Signal-Vigilance-2009\11-Threat Signal-In Repair.wav

Pre-gap length 0:00:02.00

Peak level 100.0 %
Track quality 100.0 %
Test CRC DCD7CF71
Copy CRC DCD7CF71
Track not present in AccurateRip database
Copy OK

Track 12

Filename D:\FTP\FLAC\Threat_Signal-Vigilance-2009\12-Threat Signal-Escape From Reality.wav

Pre-gap length 0:00:02.00

Peak level 100.0 %
Track quality 100.0 %
Test CRC 14800D93
Copy CRC 14800D93
Track not present in AccurateRip database
Copy OK

Track 13

Filename D:\FTP\FLAC\Threat_Signal-Vigilance-2009\13-Threat Signal-To Remember.wav

Pre-gap length 0:00:02.00

Peak level 100.0 %
Track quality 100.0 %
Test CRC 2DE387FB
Copy CRC 2DE387FB
Track not present in AccurateRip database
Copy OK

None of the tracks are present in the AccurateRip database

No errors occurred

End of status report

apach
apach

Имя:
E-mail (не обязательно):
Используется для уведомления о правильности ответа.
адм