как разбогатеть как стать богатым

(Melodic MetalCore) Bullet For My Valentine (2 альбома + 3 EP) - 2008; FLAC, APE, WV (tracks), lossless


Страна: UK || Жанр: Melodic MetalCore || Год выпуска: 2004-2008 || Формат: FLAC, APE, WV (tracks) || Битрейт аудио: lossless

Выписка с bulletformyvalentine.info
В конце девяностых, в небольшом британском городке Бридгенд, Южный Уэльс, с населением всего около 40 тысяч человек, четверо подростков - Метью Так, Майкл Педжет, Майкл Томас и Ник Крэдл собрали свою группу с необычным названием Jeff Killed John (скачать можно здесь). Парни оттачивали свое музыкальное мастерство, переигрывая такие известные банды, как Nirvana и Metallica. Спродюсированные Грэгом Хавером песни, были немного похожи на ню-метал, им помогла радиопередача live radio 1 в Ньюпорте TJ's. Их менеджером некоторое время был известный певец Steve Strange. Они даже выпустили в 2002 году сингл состоящий из двух песен "You/Play with me". Вскоре они готовились записать демо, но тут возникает большая неприятность - их группу покидает басист Ник Крэдл. "Мы должны были пойти в студию в субботу, а наш басист Ник ушёл в пятницу" - вспоминает фронтмен Мэтью Так. "... Это был настоящий удар ниже пояса, но это сделало нас сильнее. Это был почти конец нашей мечты, поскольку мы были все сыты по горло ударами по нашим головам, но к счастью мы дали этому отпор, и это cработало. "
Но распад Jeff Killed John не означал ухода талантливых ребят со сцены. С приходом нового басиста Джейсона Джеймса начинается новая ветвь развития банды. Они меняют свой стиль с застаревшего ню-метала на набирающий обороты в последнее время металкор. Вместе с музыкальным материалом парни меняют и название группы на "Bullet For My Valentine", хотя поначалу они хотели называться "Opportunity In Chicago". "Мы все были пьяны и вместе перебирали названия. Мы остановились на Bullet For My Valentine - оно прекрасно подходило к лирике Мэта..." - говорит барабанщик BFMV, Майкл Томас.
Уже в феврале 2004 года BFMV дают выступление в Лондоне и привлекают внимание нескольких крупных лейблов. Им поступает предложение о контракте даже от Roadrunner, но они отклоняют его. В октябре 2004, группе предлогают выпустить пять альбомов под маркой Sony, с Английской лицензией Visible Noise. Подьёмы и падения сделали их сильнее, Matt сказал журналу Sound Nation: "Мы полюбили прошедшие пять лет, и всё что происходит всё к лучшему. Если бы мы не подписали контракт пять лет назад то нас никто бы незнал сейчас. Мы повзрослели и теперь немного лучше разбираемся в бизнесе." Дебютам BFMV был выпущенный мини альбом состоящий из пяти песен 15 Ноября 2004. Майкл Пэджет, вскоре после выхода CD, попадает в список ста лучших гитаристов журнала Metal Hammer, по итогам голосования читателей. "Песни говорят сами за себя" сказал Matt. "Существует много групп которые выглядят хорошо но играют плохо - мы полностью противоположны им. Это - всё о музыке и о рифах. Достаточно сказал?"
Интересно, что до подписания контракта, ребята отыграли всего два концерта. За несколько месяцев до этого, парни дебютируют на знаменитом донингтонском "Download Festival".
Весной 2005-го, парни подписывают контракт с американским лейблом Trustkill Records, благодаря чему им открывается очень перспективный западный рынок. Уже 14-го июня на данном лейбле выходит компиляция "Trustkill Takeover", где Bullet For My Valentine представлены композицией "Hand Of Blood" (позже песня попадает на саундтреки к играм "Need For Speed: Most Wanted" и "Burnout Revenge"). Парни вновь зажигают на британском "Download Festival". А в августе дебютный сингл издаётся в США под названием "Hand Of Blood" EP. Парней активно расхваливают в прессе, особенно чуваки полюбились журналу Kerrang!. Издание номинирует B4MV, в категориях "Best Live Band", "Best Newcomer", "Best Single" и "Best Band On The Planet"! Ребята выигрывают в номинации "Best Newcomer". Октябрь был ознаменован, выходом в Англии, первого полноценного альбома, "The Poison". Релиз демонстрирует прекрасную смесь из металкора, с его хэви-метал рифами в духе Iron Maiden, и тяжёлой хардкорной начинкой, а также эмо, с его тёмной романтикой и душещипательным вокалом. Как говорят сами чуваки о своём творчестве: "Олд-скульная музыка встречается с мелодиями современности".
Парни в миг становятся новыми звёздами тяжёлой музыки, и в ноябре отправляются в свой первый тур по США, выступая на разогреве у It Dies Today. Потом европейские гастроли, с финскими легендами Apocalyptica. К сожалению, 3 концерта пришлось отменить, в связи с тем, что у Мэта, были проблемы с горлом (интересно, что один из отменённых концертов, планировалось снять, для будущего DVD-релиза Bullet For My Valentine). В декабре чуваки вновь колесят по Европе, но уже в компании с Dark Tranquillity, Chimaira и Hatesphere. Январь 2006 года, парни отметили "Kerrang! XXV" туром по Великобритании, которой был посвящён 25-летию данного издания. B4MV выступили в нём хэдлайнерами, разогревали же парней - Still Remains, Hawthorne Heights и Aiden.
В день Святого Валентина, "The Poison" выходит в штатах и дебютирует в чарте Billboard на 127-ом месте. В середине марта парни едут в североамериканский тур, открывая выступления Rob Zombie и Lacuna Coil. 5-го апреля выходит специальный выпуск журнала Kerrang!, вместе с которым прилагается весьма необычное переиздание альбома Metallica - "Master Of Puppets". CD, названный "Remastered", содержит все песни данного альбома, переигранные такими крутыми бандами, как Chimaira, Machine Head, Trivium, ну и само собой Bullet For My Valentine. Парни представлены на нём, своей версией "Welcome Home (Sanitarium)". На следующий день после выхода, Мэт Так делает заявление, где очень нелестно отзывается о Rob Zombie и его команде. И хоть через несколько часов, он приносит извинения на официальном сайте группы, парней всё равно снимают с этого тура.
Следующие гастроли по США ("Trustkill Takeover Tour") не заставили себя долго ждать. Турне проходит с 12 по 28 мая, а специальными гостями выступают Walls Of Jericho и Roses Are Red. В мае выходит сингл Apocalyptica - "Repressed". Приглашёнными вокалистами, на одноимённой композиции, выступили Мэт и Макс Кавалера из Soulfly. А 31-го мая, в Британии выходит ещё одно спец. издание Kerrang!, с 15-песенным бонус-диском "High Voltage", на котором представлены кавер-версии известных рок и метал композиций, исполненные различными командами (Deftones, Killswitch Engage, Atreyu, Still Remains и тд). Bullet For My Valentine, эксклюзивно для данной компиляции, записали кавер на классическую вещь Ozzy Osbourne - "Crazy Train". В июне парни активно проедутся по Европе, выступят на множестве фестивалей, среди которых "Rock Am Ring", "Rock Im Park", "Download", "Nova Rock" и другие. Также, на нескольких европейских датах, ребята откроют выступления - Metallica и Guns N Roses. Весьма неплохо, для столь молодого коллектива, но это только начало, и скорее всего, BFMV ещё не раз порадуют нас своим творчеством, ведь альбом вышедший в 2008 году SCREAM AIM FIRE был очень даже ничего)!
Состав:
- полное имя Jason James, отзывается так же на Джей и 'JJ'.
- Джей родился 13.01.1981.
- Джей самый маленький в группе, его рост 1.68 м.
- В подростковом возрасте Джей играл на ударных.
- Pantera самая любимая группа Джея, он так же слушает: Judas Priest, Iron Maiden, Deftones, Guns 'N Roses, Kiss, Slayer, Motorhead...
- У Джея есть гражданская жена Шери и дочь по имени Абигэйль.
- Джей курит и много пьёт, вот что по этому поводу сказал Мэт: "Джей выпьет все, что попадет к нему в руки!"
- увлечения Джея: Интернет и фильмы ужасов.
- полное имя Matthew Tuck, отзывается так же на псевдоним Мэтью Валентайн.
- родился 20.01.1980 в городе Бридгенд, Южный Уэльс.
- Мэт самый высокий в группе, его рост 1.80 м.
- Мэт заинтерисовался металом в возрасте 14 лет, когда увидел клип Metallica "Enter The Sandman" на MTV, вследствие этого он увлёкся игрой на гитаре.
- Metallica самая любимая группа Мэта, он так же любит слушать: Iron Maiden, Judas Priest, Black Sabbath, Motley Crue, Megadeath, Pantera, DragonForce, Killswitch Engage...
- Во время осеннего турне 2005 года, Мэт напивался настолько сильно, что угодил в больницу с алкогольным отравлением.
- Мэт курит, правда не всегда.
- В возрасте 16, Мэт вместе с Моусом, был основателем панк группы "Trauma".
- у Мэта якобы существовал комплекс по поводу его носа.
- Пэдж, называет Мэта, очень странным и непредсказуемым человеком.
- У Мэта есть девушка, по имени Charly Dollheart.
- Мэт учился в Бридгендском колледже
- Из-за частых неприятностей с Мэтом(болезней, алкогольных отравлений и проблем с горлом), группе пришлось отменить не один десяток своих шоу.
- у Мэта есть две сестры, Дебора и Рэйчел.
- Увлечения Мэта: сочинение песен, Интернет, фильмы ужасов, спортивные машины, гитары.
- По мимо гитары, Мэт так же умеет играть на губной гармошке, клавишных и немного на ударной установке.
- Больше всего Мэт ненавидит британскую поп музыку и инди рок.
- полное имя Michael Paget, откликается на прозвище Пэдж.
- родился 12.09.1979 в городе Бридгенд, Южный Уэльс.
- рост Пэджа 1.73 м.
- Пэдж начал играть на гитаре с 9 лет, его первой гитарой была Noisemaker 3000.
- Пэдж обручён, с девушкой по имени Кэролайн.
- Пэдж учился в Бридгендском коледже.
- своими главными увлечениями он называет: игра на гитаре и напиваться в стельку.
- Iron Maiden самая любимая группа Пэджа, он так же слушает: Pantera, Metallica...
- Пэдж курит и много пьёт.
- полное имя Michael Thomas, отзывается на прозвище Мус.
- родился 04.06.1981(самый молодой в группе) в городе Бридгенд, Южный Уэльс.
- рост Муса 1.75 м.
- первые уроки игры на барабанах Мус начал брать в 5 лет.
- в подростковом возрасте, вместе с Мэтом основал группу "Trauma", где сам Мус играл на гитаре(которую ему подарили на Рождество в 15 лет).
- брат Муса, Ян играет на гитаре в поп/рок группе Miss Conduct.
- в 13 лет он купил ударную установку у Пэджа.
- у Муса есть две дочери.
- Мус часто менял школы(около 5 раз).
- У Муса кривой, сломанный нос, но он по этому поводу некомплексует.
- Мус учился в Бридгендском коледже.
- Judas Priest самая любимая группа Муса, он так же обожает слушать: Metallica, Iron Maiden, 36 Crazyfists, Testament, Black Sabbath, Machine Head, Beach Boys...

Трэклист:
01. Hand of Blood
02. Cries in Vain
03. Curses
04. No Control
05. Just Another Star
Exact Audio Copy V0.99 prebeta 4 from 23. January 2008

Отчёт EAC об извлечении, выполненном 11. марта 2009, 11:43

Bullet For My Valentine / Bullet For My Valentine EP

Дисковод: ASUS DRW-1814BL Adapter: 0 ID: 1

Режим чтения : Достоверность
Использование точного потока : Да
Отключение кэша аудио : Да
Использование указателей C2 : Нет

Коррекция смещения при чтении : 6
Способность читать области Lead-in и Lead-out : Нет
Заполнение пропущенных сэмплов тишиной : Да
Удаление блоков с тишиной в начале и конце : Нет
При вычислениях CRC использовались нулевые сэмплы : Да
Интерфейс : Установленный внешний ASPI-интерфейс

Выходной формат : Пользовательский кодировщик
Выбранный битрейт : 1024 kBit/s
Качество : Высокий
Добавление ID3-тэга : Нет
Утилита сжатия : C:\Program Files\Exact Audio Copy\FLAC\FLAC.EXE
Дополнительные параметры : -6 -V -T "ARTIST=%a" -T "TITLE=%t" -T "ALBUM=%g" -T "DATE=%y" -T "TRACKNUMBER=%n" -T "GENRE=%m" -T "COMMENT=%e" %s -o %d

TOC извлечённого CD

Трек | Старт | Длительность | Начальный сектор | Конечный сектор
---------------------------------------------------------------------
1 | 0:00.00 | 3:38.17 | 0 | 16366
2 | 3:38.17 | 4:00.22 | 16367 | 34388
3 | 7:38.39 | 3:59.64 | 34389 | 52377
4 | 11:38.28 | 3:34.39 | 52378 | 68466
5 | 15:12.67 | 2:55.66 | 68467 | 81657
6 | 20:40.58 | 15:42.30 | 93058 | 163737

Характеристики диапазона извлечения и сообщения об ошибках

Выбранный диапазон

Имя файла D:\Bullet For My Valentine - Bullet For My Valentine EP.wav

Пиковый уровень 99.4 %
Качество диапазона 100.0 %
CRC копии 7AF293B6
Копирование... OK

Ошибок не произошло

AccurateRip: сводка
Трек 1 точное извлечение (доверие 10) [18383A32]
Трек 2 точное извлечение (доверие 10) [1CCB1D07]
Трек 3 точное извлечение (доверие 10) [A60DC66C]
Трек 4 точное извлечение (доверие 10) [2E634EA7]
Трек 5 точное извлечение (доверие 10) [0E346C86]
Все треки извлечены точно

Конец отчёта
01. 4 Words (To Choke Upon)
02. Hand Of Blood
03. Cries In Vain
04. Curses
05. No Control
06. Just Another Star
Exact Audio Copy V0.99 prebeta 4 from 23. January 2008

Отчёт EAC об извлечении, выполненном 9. мая 2009, 19:16

Bullet For My Valentine / Hand Of Blood

Дисковод: ASUS DRW-1814BL Adapter: 0 ID: 1

Режим чтения : Достоверность
Использование точного потока : Да
Отключение кэша аудио : Да
Использование указателей C2 : Нет

Коррекция смещения при чтении : 6
Способность читать области Lead-in и Lead-out : Нет
Заполнение пропущенных сэмплов тишиной : Да
Удаление блоков с тишиной в начале и конце : Нет
При вычислениях CRC использовались нулевые сэмплы : Да
Интерфейс : Установленный внешний ASPI-интерфейс

Выходной формат : Пользовательский кодировщик
Выбранный битрейт : 1024 kBit/s
Качество : Высокий
Добавление ID3-тэга : Нет
Утилита сжатия : C:\Program Files\Exact Audio Copy\FLAC\FLAC.EXE
Дополнительные параметры : -6 -V -T "ARTIST=%a" -T "TITLE=%t" -T "ALBUM=%g" -T "DATE=%y" -T "TRACKNUMBER=%n" -T "GENRE=%m" -T "COMMENT=%e" %s -o %d

TOC извлечённого CD

Трек | Старт | Длительность | Начальный сектор | Конечный сектор
---------------------------------------------------------------------
1 | 0:00.00 | 3:46.10 | 0 | 16959
2 | 3:46.10 | 3:37.52 | 16960 | 33286
3 | 7:23.62 | 4:00.05 | 33287 | 51291
4 | 11:23.67 | 3:59.73 | 51292 | 69289
5 | 15:23.65 | 3:34.36 | 69290 | 85375
6 | 18:58.26 | 2:53.68 | 85376 | 98418
7 | 24:24.19 | 15:26.73 | 109819 | 179341

Характеристики диапазона извлечения и сообщения об ошибках

Выбранный диапазон

Имя файла G:\Руслан\Bullet For My Valentine - Hand Of Blood.wav

Пиковый уровень 99.4 %
Качество диапазона 100.0 %
CRC копии 910AAAF5
Копирование... OK

Ошибок не произошло

AccurateRip: сводка
Трек 1 точное извлечение (доверие 12) [0D248E2F]
Трек 2 точное извлечение (доверие 12) [8EC5EAAF]
Трек 3 точное извлечение (доверие 12) [A3C94BBD]
Трек 4 точное извлечение (доверие 12) [BCF049A6]
Трек 5 точное извлечение (доверие 12) [15C646EA]
Трек 6 точное извлечение (доверие 12) [1A7018E6]
Все треки извлечены точно

Конец отчёта
01. All These Things I Hate (Revolve Around Me)
02. Room 409' (Live)
03. Seven Days'
04. My Fist, Your Mouth, Her Scars (Includes a sample of the song Breathe Life by Killswitch Engage)
EAC extraction logfile from 3. May 2006, 12:35 for CD
Bullet For My Valentine / All These Things I Hate [Special Edition]

Used drive : PLEXTOR CD-R PREMIUM Adapter: 1 ID: 1
Read mode : Secure with NO C2, accurate stream, disable cache
Read offset correction : 30
Overread into Lead-In and Lead-Out : Yes

Used output format : Internal WAV Routines
44.100 Hz; 16 Bit; Stereo

Other options :
Fill up missing offset samples with silence : Yes
Delete leading and trailing silent blocks : No
Installed external ASPI interface

Range status and errors
Selected range
Filename G:\WAV2xxx\Bullet For My Valentine - All These Things I Hate [Special Edition].wav

Peak level 100.0 %
Range quality 100.0 %
CRC 3FF792FA
Copy OK

No errors occured

End of status report
01. Intro
02. Her Voice Resides
03. 4 Words (To Choke Upon)
04. Tears Don't Fall
05. Suffocating Under The Words Of Sorrow (What Can I Do)
06. Hit The Floor
07. All These Things I Hate (Revolve Around Me)
08. Room 409
09. The Poison
10. 10 Years Today
11. Cries In Vain
12. Spit You Out
13. The End
14. 7 Days (Bonus Track)
15. My Fist, Your Mouth, Her Scars (Bonus Track)
16. Welcome Home (Sanitarium) (Bonus Track)
17. Tears Don't Fall (Acoustic) (Bonus Track)
EAC extraction logfile from 7. November 2007, 22:54 for CD
Bullet For My Valentine / The Poison
Used drive : ASUS DRW-1604P Adapter: 0 ID: 0
Read mode : Secure with NO C2, accurate stream, disable cache
Read offset correction : 48
Overread into Lead-In and Lead-Out : No
Used output format : D:\Program Files\Exact Audio Copy\MAC.exe (Monkey's Audio Lossless Encoder)
High Lossless Compression
Other options :
Fill up missing offset samples with silence : Yes
Delete leading and trailing silent blocks : No
Native Win32 interface for Win NT & 2000
Range status and errors
Selected range
Filename E:\Bullet For My Valentine - The Poison.wav
Peak level 100.0 %
Range quality 99.9 %
CRC 64D3FA89
Copy OK
No errors occured
End of status report
01. Scream Aim Fire
02. Eye Of The Storm
03. Hearts Burst Into Fire
04. Waking The Demon
05. Disappear
06. Deliver Us From Evil
07. Take It Out On Me (Feat. Benji Webbe)
08. Say Goodnight
09. End Of Days
10. Last To Know
11. Forever And Always
12. Road To Nowhere (Bonus Track)
13. Watching Us Die Tonight (Bonus Track)
14. One Good Reason Why (Bonus Track)
15. Ashes Of The Innocent (Bonus Track)
Exact Audio Copy V0.99 prebeta 5 from 4. May 2009

Отчёт EAC об извлечении, выполненном 1. июля 2009, 16:09

Bullet For My Valentine / Scream Aim Fire (Deluxe Издание)

Дисковод: TSSTcorpDVD-ROM SH-D162C Adapter: 2 ID: 1

Режим чтения : Достоверность
Использование точного потока : Да
Отключение кэша аудио : Да
Использование указателей C2 : Нет

Коррекция смещения при чтении : 6
Способность читать области Lead-in и Lead-out : Нет
Заполнение пропущенных сэмплов тишиной : Да
Удаление блоков с тишиной в начале и конце : Нет
При вычислениях CRC использовались нулевые сэмплы : Нет
Интерфейс : Встроенный Win32-интерфейс для Win NT/2000
Обработка зазоров : Добавлено к предыдущему треку

Выходной формат : Пользовательский кодировщик
Выбранный битрейт : 128 kBit/s
Качество : Высокий
Добавление ID3-тэга : Нет
Утилита сжатия : C:\Program Files\Exact Audio Copy\Flac\flac.exe
Дополнительные параметры : ?8 ?V ?T "ARTIST=%a" ?T "TITLE=%t" ?T "ALBUM=%g" ?T "DATE=%y" ?T "TRACKNUMBER=%n" ?T "GENRE=%m" ?T "COMMENT=EAC FLAC ?8" %s

TOC извлечённого CD

Трек | Старт | Длительность | Начальный сектор | Конечный сектор
---------------------------------------------------------------------
1 | 0:00.00 | 4:26.33 | 0 | 19982
2 | 4:26.33 | 4:02.69 | 19983 | 38201
3 | 8:29.27 | 4:57.71 | 38202 | 60547
4 | 13:27.23 | 4:07.52 | 60548 | 79124
5 | 17:35.00 | 4:05.12 | 79125 | 97511
6 | 21:40.12 | 5:58.21 | 97512 | 124382
7 | 27:38.33 | 5:52.10 | 124383 | 150792
8 | 33:30.43 | 4:43.31 | 150793 | 172048
9 | 38:13.74 | 4:18.30 | 172049 | 191428
10 | 42:32.29 | 3:17.19 | 191429 | 206222
11 | 45:49.48 | 6:47.37 | 206223 | 236784
12 | 52:37.10 | 4:19.39 | 236785 | 256248
13 | 56:56.49 | 3:53.42 | 256249 | 273765
14 | 60:50.16 | 4:04.62 | 273766 | 292127
15 | 64:55.03 | 4:15.00 | 292128 | 311252
16 | 71:42.03 | 6:38.39 | 322653 | 352541

Трек 1

Имя файла D:\Скачанное\Разное\Разное\Опять Разное\Торренты\Bullet For My Valentine\(2008) Scream Aim Fire (Deluxe Издание){Text}1 – Track01.wav

Длина предзазора 0:00:02.00

Пиковый уровень 97.7 %
Качество трека 100.0 %
CRC теста BEB662D3
CRC копии BEB662D3
Копирование... OK

Трек 2

Имя файла D:\Скачанное\Разное\Разное\Опять Разное\Торренты\Bullet For My Valentine\(2008) Scream Aim Fire (Deluxe Издание){Text}2 – Track02.wav

Пиковый уровень 97.7 %
Качество трека 100.0 %
CRC теста EC00FA4D
CRC копии EC00FA4D
Копирование... OK

Трек 3

Имя файла D:\Скачанное\Разное\Разное\Опять Разное\Торренты\Bullet For My Valentine\(2008) Scream Aim Fire (Deluxe Издание){Text}3 – Track03.wav

Пиковый уровень 97.7 %
Качество трека 100.0 %
CRC теста 80268458
CRC копии 80268458
Копирование... OK

Трек 4

Имя файла D:\Скачанное\Разное\Разное\Опять Разное\Торренты\Bullet For My Valentine\(2008) Scream Aim Fire (Deluxe Издание){Text}4 – Track04.wav

Длина предзазора 0:00:00.10

Пиковый уровень 100.0 %
Качество трека 99.9 %
CRC теста C9A6342E
CRC копии C9A6342E
Копирование... OK

Трек 5

Имя файла D:\Скачанное\Разное\Разное\Опять Разное\Торренты\Bullet For My Valentine\(2008) Scream Aim Fire (Deluxe Издание){Text}5 – Track05.wav

Длина предзазора 0:00:00.05

Пиковый уровень 97.7 %
Качество трека 100.0 %
CRC теста 4F458A3D
CRC копии 4F458A3D
Копирование... OK

Трек 6

Имя файла D:\Скачанное\Разное\Разное\Опять Разное\Торренты\Bullet For My Valentine\(2008) Scream Aim Fire (Deluxe Издание){Text}6 – Track06.wav

Длина предзазора 0:00:00.10

Пиковый уровень 97.7 %
Качество трека 99.9 %
CRC теста C9F0DBE1
CRC копии C9F0DBE1
Копирование... OK

Трек 7

Имя файла D:\Скачанное\Разное\Разное\Опять Разное\Торренты\Bullet For My Valentine\(2008) Scream Aim Fire (Deluxe Издание){Text}7 – Track07.wav

Длина предзазора 0:00:00.07

Пиковый уровень 97.7 %
Качество трека 100.0 %
CRC теста 0BEA885C
CRC копии 0BEA885C
Копирование... OK

Трек 8

Имя файла D:\Скачанное\Разное\Разное\Опять Разное\Торренты\Bullet For My Valentine\(2008) Scream Aim Fire (Deluxe Издание){Text}8 – Track08.wav

Пиковый уровень 97.7 %
Качество трека 100.0 %
CRC теста 61AF5E8B
CRC копии 61AF5E8B
Копирование... OK

Трек 9

Имя файла D:\Скачанное\Разное\Разное\Опять Разное\Торренты\Bullet For My Valentine\(2008) Scream Aim Fire (Deluxe Издание){Text}9 – Track09.wav

Длина предзазора 0:00:00.04

Пиковый уровень 97.7 %
Качество трека 100.0 %
CRC теста E9AFE224
CRC копии E9AFE224
Копирование... OK

Трек 10

Имя файла D:\Скачанное\Разное\Разное\Опять Разное\Торренты\Bullet For My Valentine\(2008) Scream Aim Fire (Deluxe Издание)\10 – Track10.wav

Пиковый уровень 97.7 %
Качество трека 99.9 %
CRC теста 592C9877
CRC копии 592C9877
Копирование... OK

Трек 11

Имя файла D:\Скачанное\Разное\Разное\Опять Разное\Торренты\Bullet For My Valentine\(2008) Scream Aim Fire (Deluxe Издание)\11 – Track11.wav

Длина предзазора 0:00:01.47

Пиковый уровень 97.7 %
Качество трека 100.0 %
CRC теста D49CB6A0
CRC копии D49CB6A0
Копирование... OK

Трек 12

Имя файла D:\Скачанное\Разное\Разное\Опять Разное\Торренты\Bullet For My Valentine\(2008) Scream Aim Fire (Deluxe Издание)\12 – Track12.wav

Длина предзазора 0:00:01.10

Пиковый уровень 99.9 %
Качество трека 100.0 %
CRC теста ACF3AEDC
CRC копии ACF3AEDC
Копирование... OK

Трек 13

Имя файла D:\Скачанное\Разное\Разное\Опять Разное\Торренты\Bullet For My Valentine\(2008) Scream Aim Fire (Deluxe Издание)\13 – Track13.wav

Длина предзазора 0:00:00.04

Пиковый уровень 99.9 %
Качество трека 100.0 %
CRC теста 4E387C44
CRC копии 4E387C44
Копирование... OK

Трек 14

Имя файла D:\Скачанное\Разное\Разное\Опять Разное\Торренты\Bullet For My Valentine\(2008) Scream Aim Fire (Deluxe Издание)\14 – Track14.wav

Длина предзазора 0:00:00.06

Пиковый уровень 99.9 %
Качество трека 100.0 %
CRC теста 35D69148
CRC копии 35D69148
Копирование... OK

Трек 15

Имя файла D:\Скачанное\Разное\Разное\Опять Разное\Торренты\Bullet For My Valentine\(2008) Scream Aim Fire (Deluxe Издание)\15 – Track15.wav

Длина предзазора 0:00:02.25

Пиковый уровень 100.0 %
Качество трека 100.0 %
CRC теста 4B584C62
CRC копии 4B584C62
Копирование... OK

Ошибок не произошло

Конец отчёта

Дополнительная информация: Deluxe издание альбома The Poison появилось не в 2005, а в 2007!
apach
apach
Приостанавливаю раздачу до вечера по тех. причинам
apach
apach
ништяк оформление
penkin
penkin
Спасибо
apach
apach
Ништяк! Спасибо! Респект те ay
~alexis~
~alexis~
Миштяк группа Спасибо.
Spens
Spens
О когда то это слушал ништяг!!!
И не проч скачать ah
Рэйв
Рэйв
СПС
Smoker
Smoker

Имя:
E-mail (не обязательно):
Используется для уведомления о правильности ответа.
адм