как разбогатеть как стать богатым

(Metalcore/Melodic Death) Buried In Verona - Circle The Dead - 2008, FLAC (tracks), lossless

Buried In Verona - Circle The Dead

Страна: Australia
Жанр: Metalcore/Melodic Death
Год выпуска: 2008
Формат: FLAC (tracks)
Битрейт аудио: lossless
Продолжительность: 39:09
Трэклист:
01. [04:47] Five Bullet Russian Roulette
02. [04:07] All For Nothing
03. [03:38] Colonel Mustard In The Conservatory With The Lead Pipe
04. [03:24] Can I Borrow A Feeling
05. [04:45] Taken To The Light
06. [03:26] Dirt Nap
07. [03:08] Face Of Tragedy
08. [00:51] Circle The Dead
09. [03:31] Don't Call Me Baby
10. [03:08] For Darker Days
11. [04:23] No Time To Die
Состав группы:
Brett - Vocals
Mick - Guitar
Kat - Guitar
Richmond - Bass
Richie - Drums
Exact Audio Copy V0.99 prebeta 3 from 28. July 2007

EAC extraction logfile from 19. April 2009, 22:19

Buried In Verona / Circle The Dead

Used drive : PLEXTOR DVDR PX-850SA Adapter: 3 ID: 0

Read mode : Secure
Utilize accurate stream : Yes
Defeat audio cache : Yes
Make use of C2 pointers : No

Read offset correction : 6
Overread into Lead-In and Lead-Out : No
Fill up missing offset samples with silence : Yes
Delete leading and trailing silent blocks : No
Null samples used in CRC calculations : Yes
Used interface : Native Win32 interface for Win NT & 2000
Gap handling : Appended to previous track

Used output format : User Defined Encoder
Selected bitrate : 128 kBit/s
Quality : High
Add ID3 tag : No
Command line compressor : C:\Program Files (x86)\FLAC\flac.exe
Additional command line options : -8 -V -T "ARTIST=%a" -T "TITLE=%t" -T "ALBUM=%g" -T "DATE=%y" -T "TRACKNUMBER=%n" -T "TOTALTRACKS=%x" -T "GENRE=%m" -T "ALBUMARTIST=%v" -T "ALBUM ARTIST=%v" -T "COMMENT=Ripped by GWEEDOspeedo @ Pedro's" %s

TOC of the extracted CD

Track | Start | Length | Start sector | End sector
---------------------------------------------------------
1 | 0:00.00 | 4:47.33 | 0 | 21557
2 | 4:47.33 | 4:07.06 | 21558 | 40088
3 | 8:54.39 | 3:38.37 | 40089 | 56475
4 | 12:33.01 | 3:23.73 | 56476 | 71773
5 | 15:56.74 | 4:45.17 | 71774 | 93165
6 | 20:42.16 | 3:25.69 | 93166 | 108609
7 | 24:08.10 | 3:08.18 | 108610 | 122727
8 | 27:16.28 | 0:51.13 | 122728 | 126565
9 | 28:07.41 | 3:31.14 | 126566 | 142404
10 | 31:38.55 | 3:07.48 | 142405 | 156477
11 | 34:46.28 | 4:23.13 | 156478 | 176215

Track 1

Filename E:\FLAC Lossless Ripped\Buried In Verona - Circle The Dead (2008) [FLAC]{Text}1 - Five Bullet Russian Roulette.wav

Pre-gap length 0:00:02.00

Peak level 98.8 %
Track quality 100.0 %
Test CRC E74D86B3
Copy CRC E74D86B3
Track not present in AccurateRip database
Copy OK

Track 2

Filename E:\FLAC Lossless Ripped\Buried In Verona - Circle The Dead (2008) [FLAC]{Text}2 - All For Nothing.wav

Pre-gap length 0:00:00.46

Peak level 98.8 %
Track quality 100.0 %
Test CRC 1589B98C
Copy CRC 1589B98C
Track not present in AccurateRip database
Copy OK

Track 3

Filename E:\FLAC Lossless Ripped\Buried In Verona - Circle The Dead (2008) [FLAC]{Text}3 - Colonel Mustard In The Conservatory With The Lead Pipe.wav

Peak level 98.9 %
Track quality 99.9 %
Test CRC C6985DD4
Copy CRC C6985DD4
Track not present in AccurateRip database
Copy OK

Track 4

Filename E:\FLAC Lossless Ripped\Buried In Verona - Circle The Dead (2008) [FLAC]{Text}4 - Can I Borrow A Feeling.wav

Peak level 98.8 %
Track quality 100.0 %
Test CRC E04536A1
Copy CRC E04536A1
Track not present in AccurateRip database
Copy OK

Track 5

Filename E:\FLAC Lossless Ripped\Buried In Verona - Circle The Dead (2008) [FLAC]{Text}5 - Taken To The Light.wav

Peak level 98.8 %
Track quality 99.9 %
Test CRC 543B013A
Copy CRC 543B013A
Track not present in AccurateRip database
Copy OK

Track 6

Filename E:\FLAC Lossless Ripped\Buried In Verona - Circle The Dead (2008) [FLAC]{Text}6 - Dirt Nap.wav

Peak level 98.8 %
Track quality 100.0 %
Test CRC AB5DD42D
Copy CRC AB5DD42D
Track not present in AccurateRip database
Copy OK

Track 7

Filename E:\FLAC Lossless Ripped\Buried In Verona - Circle The Dead (2008) [FLAC]{Text}7 - Face Of Tragedy.wav

Pre-gap length 0:00:00.51

Peak level 98.8 %
Track quality 100.0 %
Test CRC 52F1F973
Copy CRC 52F1F973
Track not present in AccurateRip database
Copy OK

Track 8

Filename E:\FLAC Lossless Ripped\Buried In Verona - Circle The Dead (2008) [FLAC]{Text}8 - Circle The Dead.wav

Peak level 94.2 %
Track quality 100.0 %
Test CRC 69C597D4
Copy CRC 69C597D4
Track not present in AccurateRip database
Copy OK

Track 9

Filename E:\FLAC Lossless Ripped\Buried In Verona - Circle The Dead (2008) [FLAC]{Text}9 - Don't Call Me Baby.wav

Peak level 100.0 %
Track quality 99.9 %
Test CRC C1685FD4
Copy CRC C1685FD4
Track not present in AccurateRip database
Copy OK

Track 10

Filename E:\FLAC Lossless Ripped\Buried In Verona - Circle The Dead (2008) [FLAC]\10 - For Darker Days.wav

Peak level 100.0 %
Track quality 99.9 %
Test CRC 75DBC8FC
Copy CRC 75DBC8FC
Track not present in AccurateRip database
Copy OK

Track 11

Filename E:\FLAC Lossless Ripped\Buried In Verona - Circle The Dead (2008) [FLAC]\11 - No Time To Die.wav

Peak level 98.8 %
Track quality 100.0 %
Test CRC 8D61B060
Copy CRC 8D61B060
Track not present in AccurateRip database
Copy OK

None of the tracks are present in the AccurateRip database

No errors occurred

End of status report

apach
apach

Имя:
E-mail (не обязательно):
Используется для уведомления о правильности ответа.
адм