как разбогатеть как стать богатым

(Metalcore) Walls of Jericho - With Devils Amongst Us All - 2006, FLAC (tracks), lossless

Walls of Jericho - With Devils Amongst Us All

Страна: USA
Жанр: Metalcore
Год выпуска: 2006
Формат: FLAC (tracks)
Битрейт аудио: lossless
Продолжительность: 34 мин 59 сек
Трэклист:
01. A Trigger Full Of Promises
02. I Know Hollywood And You Ain't It
03. And Hope To Die
04. Plastic
05. Try.Fall.Repeat
06. The Haunted
07. And The Dead Walking Again
08. Another Day, Another Idiot
09. No Saving Me
10. Welcome Home
11. With Devil Amongst Us All
Exact Audio Copy V0.99 prebeta 4 from 23. January 2008

EAC extraction logfile from 12. April 2008, 0:18

Walls of Jericho / With Devils Amongst Us All

Used drive : PIONEER DVD-RW DVR-111D Adapter: 0 ID: 1

Read mode : Secure
Utilize accurate stream : Yes
Defeat audio cache : Yes
Make use of C2 pointers : No

Read offset correction : 48
Overread into Lead-In and Lead-Out : No
Fill up missing offset samples with silence : Yes
Delete leading and trailing silent blocks : No
Null samples used in CRC calculations : Yes
Used interface : Native Win32 interface for Win NT & 2000
Gap handling : Not detected, thus appended to previous track

Used output format : User Defined Encoder
Selected bitrate : 768 kBit/s
Quality : High
Add ID3 tag : No
Command line compressor : C:\Program Files\Exact Audio Copy\FLAC\FLAC.EXE
Additional command line options : -V -8 -T "artist=%a" -T "title=%t" -T "album=%g" -T "date=%y" -T "tracknumber=%n" -T "genre=%m" %s

TOC of the extracted CD

Track | Start | Length | Start sector | End sector
---------------------------------------------------------
1 | 0:00.00 | 3:48.54 | 0 | 17153
2 | 3:48.54 | 2:39.24 | 17154 | 29102
3 | 6:28.03 | 3:14.63 | 29103 | 43715
4 | 9:42.66 | 3:16.36 | 43716 | 58451
5 | 12:59.27 | 3:13.37 | 58452 | 72963
6 | 16:12.64 | 3:23.13 | 72964 | 88201
7 | 19:36.02 | 3:23.74 | 88202 | 103500
8 | 23:00.01 | 1:58.69 | 103501 | 112419
9 | 24:58.70 | 4:08.24 | 112420 | 131043
10 | 29:07.19 | 2:17.23 | 131044 | 141341
11 | 31:24.42 | 3:36.50 | 141342 | 157591

Track 1

Filename J:\Music\Lossless\Walls of Jericho\With Devils Amongst Us All{Text}1 A Trigger Full of Promises.wav

Peak level 97.4 %
Track quality 100.0 %
Copy CRC 0A34C893
Cannot be verified as accurate (confidence 1) [57EDEE27], AccurateRip returned [DE5E73F9]
Copy OK

Track 2

Filename J:\Music\Lossless\Walls of Jericho\With Devils Amongst Us All{Text}2 I Know Hollywood and You Ain't It.wav

Peak level 99.0 %
Track quality 100.0 %
Copy CRC 0E15EA65
Cannot be verified as accurate (confidence 1) [A712B399], AccurateRip returned [92B6F2FD]
Copy OK

Track 3

Filename J:\Music\Lossless\Walls of Jericho\With Devils Amongst Us All{Text}3 And Hope to Die.wav

Peak level 97.4 %
Track quality 100.0 %
Copy CRC 3B2D6A8C
Cannot be verified as accurate (confidence 1) [A9012705], AccurateRip returned [5D0617BF]
Copy OK

Track 4

Filename J:\Music\Lossless\Walls of Jericho\With Devils Amongst Us All{Text}4 Plastic.wav

Peak level 97.5 %
Track quality 100.0 %
Copy CRC AA3617D3
Cannot be verified as accurate (confidence 1) [C8E97786], AccurateRip returned [1FBE27D3]
Copy OK

Track 5

Filename J:\Music\Lossless\Walls of Jericho\With Devils Amongst Us All{Text}5 Try.Fail.Repeat..wav

Peak level 97.4 %
Track quality 100.0 %
Copy CRC 6A6FA8A6
Cannot be verified as accurate (confidence 1) [783FF09A], AccurateRip returned [40F89A7B]
Copy OK

Track 6

Filename J:\Music\Lossless\Walls of Jericho\With Devils Amongst Us All{Text}6 The Haunted.wav

Peak level 97.4 %
Track quality 100.0 %
Copy CRC A6F5E871
Cannot be verified as accurate (confidence 1) [4C7D20E6], AccurateRip returned [E9EAF123]
Copy OK

Track 7

Filename J:\Music\Lossless\Walls of Jericho\With Devils Amongst Us All{Text}7 And the Dead Walk Again.wav

Peak level 97.4 %
Track quality 100.0 %
Copy CRC 1D5173DB
Cannot be verified as accurate (confidence 1) [3B944FD5], AccurateRip returned [22B010D4]
Copy OK

Track 8

Filename J:\Music\Lossless\Walls of Jericho\With Devils Amongst Us All{Text}8 Another Day, Another Idiot.wav

Peak level 97.4 %
Track quality 100.0 %
Copy CRC 96659845
Cannot be verified as accurate (confidence 1) [61998EF5], AccurateRip returned [A6F5792F]
Copy OK

Track 9

Filename J:\Music\Lossless\Walls of Jericho\With Devils Amongst Us All{Text}9 No Saving Me.wav

Peak level 97.4 %
Track quality 100.0 %
Copy CRC FF4672A9
Cannot be verified as accurate (confidence 1) [E88B919D], AccurateRip returned [0B0335AE]
Copy OK

Track 10

Filename J:\Music\Lossless\Walls of Jericho\With Devils Amongst Us All\10 Welcome Home.wav

Peak level 97.4 %
Track quality 100.0 %
Copy CRC D68E97A2
Cannot be verified as accurate (confidence 1) [C664FBBB], AccurateRip returned [3275EEB9]
Copy OK

Track 11

Filename J:\Music\Lossless\Walls of Jericho\With Devils Amongst Us All\11 With Devils Amongst Us All.wav

Peak level 97.4 %
Track quality 100.0 %
Copy CRC E39A0CE3
Cannot be verified as accurate (confidence 1) [8ECCE6FB], AccurateRip returned [38270A6C]
Copy OK

No tracks could be verified as accurate
You may have a different pressing from the one(s) in the database

No errors occurred

End of status report

apach
apach

Имя:
E-mail (не обязательно):
Используется для уведомления о правильности ответа.
адм