как разбогатеть как стать богатым

(Technical Death/Thrash Metal) Revocation - Empire Of The Obscene - 2008, FLAC (tracks), lossless

Revocation - Empire Of The Obscene

Страна: USA
Жанр: Technical Death/Thrash Metal
Год выпуска: 2008
Формат: FLAC (tracks)
Битрейт аудио: lossless
Продолжительность: 55.48
Трэклист:
01. Unattained (03:41)
02. Tail From The Crypt (04:40)
03. Exhumed Identity (06:52)
04. Fields of Predation (05:59)
05. Alliance And Tyranny (04:59)
06. Suffer These Wounds (06:11)
07. Summon The Spawn (05:39)
08. None Shall Be Spared (All Shall Be Speared) (05:44)
09. Stillness (02:04)
10. Age of Iniquity (04:59)
11. Empire of The Obscene (04:59)
Exact Audio Copy V0.99 prebeta 5 from 4. May 2009

EAC extraction logfile from 24. September 2009, 18:22

Revocation / Empire Of The Obscene

Used drive : PLEXTOR CD-R PX-W2410A Adapter: 1 ID: 0

Read mode : Secure
Utilize accurate stream : Yes
Defeat audio cache : Yes
Make use of C2 pointers : No

Read offset correction : 98
Overread into Lead-In and Lead-Out : No
Fill up missing offset samples with silence : Yes
Delete leading and trailing silent blocks : No
Null samples used in CRC calculations : Yes
Used interface : Native Win32 interface for Win NT & 2000
Gap handling : Appended to previous track

Used output format : User Defined Encoder
Selected bitrate : 1024 kBit/s
Quality : High
Add ID3 tag : No
Command line compressor : C:\Program Files\Exact Audio Copy\Flac\flac.exe
Additional command line options : -V -8 -T "artist=%a" -T "title=%t" -T "album=%g" -T "date=%y" -T "tracknumber=%n" -T "genre=%m" %s

TOC of the extracted CD

Track | Start | Length | Start sector | End sector
---------------------------------------------------------
1 | 0:00.00 | 3:41.35 | 0 | 16609
2 | 3:41.35 | 4:40.06 | 16610 | 37615
3 | 8:21.41 | 6:52.62 | 37616 | 68577
4 | 15:14.28 | 5:59.24 | 68578 | 95526
5 | 21:13.52 | 4:59.04 | 95527 | 117955
6 | 26:12.56 | 6:11.39 | 117956 | 145819
7 | 32:24.20 | 5:39.32 | 145820 | 171276
8 | 38:03.52 | 5:44.52 | 171277 | 197128
9 | 43:48.29 | 2:04.72 | 197129 | 206500
10 | 45:53.26 | 4:59.64 | 206501 | 228989
11 | 50:53.15 | 4:59.57 | 228990 | 251471

Track 1

Filename E:\EACRips\Revocation - Empire Of The Obscene - 2008{Text}1 - Unattained.wav

Pre-gap length 0:00:02.00

Peak level 99.8 %
Track quality 99.9 %
Test CRC 8352BFDE
Copy CRC 8352BFDE
Track not present in AccurateRip database
Copy OK

Track 2

Filename E:\EACRips\Revocation - Empire Of The Obscene - 2008{Text}2 - Tail From The Crypt.wav

Peak level 99.8 %
Track quality 100.0 %
Test CRC 8C5BC0B7
Copy CRC 8C5BC0B7
Track not present in AccurateRip database
Copy OK

Track 3

Filename E:\EACRips\Revocation - Empire Of The Obscene - 2008{Text}3 - Exhumed Identity.wav

Peak level 99.8 %
Track quality 100.0 %
Test CRC 65E01977
Copy CRC 65E01977
Track not present in AccurateRip database
Copy OK

Track 4

Filename E:\EACRips\Revocation - Empire Of The Obscene - 2008{Text}4 - Fields Of Predation.wav

Peak level 99.8 %
Track quality 100.0 %
Test CRC 0252E4C5
Copy CRC 0252E4C5
Track not present in AccurateRip database
Copy OK

Track 5

Filename E:\EACRips\Revocation - Empire Of The Obscene - 2008{Text}5 - Alliance And Tyranny.wav

Peak level 99.8 %
Track quality 100.0 %
Test CRC 5D9942FE
Copy CRC 5D9942FE
Track not present in AccurateRip database
Copy OK

Track 6

Filename E:\EACRips\Revocation - Empire Of The Obscene - 2008{Text}6 - Suffer These Wounds.wav

Peak level 100.0 %
Track quality 100.0 %
Test CRC 9930D50F
Copy CRC 9930D50F
Track not present in AccurateRip database
Copy OK

Track 7

Filename E:\EACRips\Revocation - Empire Of The Obscene - 2008{Text}7 - Summon The Spawn.wav

Peak level 99.8 %
Track quality 100.0 %
Test CRC 01A1D303
Copy CRC 01A1D303
Track not present in AccurateRip database
Copy OK

Track 8

Filename E:\EACRips\Revocation - Empire Of The Obscene - 2008{Text}8 - None Shall Be Spared (All Shall Be Speared).wav

Peak level 99.8 %
Track quality 99.9 %
Test CRC 5DF899B8
Copy CRC 5DF899B8
Track not present in AccurateRip database
Copy OK

Track 9

Filename E:\EACRips\Revocation - Empire Of The Obscene - 2008{Text}9 - Stillness.wav

Peak level 78.9 %
Track quality 100.0 %
Test CRC 5D42CC25
Copy CRC 5D42CC25
Track not present in AccurateRip database
Copy OK

Track 10

Filename E:\EACRips\Revocation - Empire Of The Obscene - 2008\10 - Age Of Iniquity.wav

Peak level 99.8 %
Track quality 99.9 %
Test CRC B14B2141
Copy CRC B14B2141
Track not present in AccurateRip database
Copy OK

Track 11

Filename E:\EACRips\Revocation - Empire Of The Obscene - 2008\11 - Empire Of The Obscene.wav

Peak level 99.8 %
Track quality 100.0 %
Test CRC 955277CE
Copy CRC 955277CE
Track not present in AccurateRip database
Copy OK

None of the tracks are present in the AccurateRip database

No errors occurred

End of status report

apach
apach

Имя:
E-mail (не обязательно):
Используется для уведомления о правильности ответа.
адм