как разбогатеть как стать богатым

(Gothic Industrial Metal) Deathstars - Дискография - (2003-2009), FLAC (tracks), lossless

Deathstars - Дискография 2003-2009

Страна: Sweden
Жанр: Gothic Industrial Metal
Год выпуска: 2003-2009
Формат: FLAC (tracks)
Битрейт аудио: lossless
О группе:
(Выписка из Википедии)
Deathstars — индастриал-метал группа основанная в Швеции в январе 2000 года. Коллектив представляет необычную смесь стилей блэк-метал, дэт-метал, индастриал-метал, которая в сочетании с ярким имиджем открыла для них дорогу сначала на крупный лейбл LED, а затем и на один из авторитетнейших метал-лейблов Nuclear Blast. Их песни возглавляли верхние строки ТВ-чартов Швеции и Германии, звучали в голливудском фильме, а клипы запрещали к показу на телевидении, сегодня это одна из самых коммерчески успешных групп Швеции. Текущий состав в основном — состоит из участников музыкального коллектива Swordmaster (блэк-металлический проект) и Dissection, также в состав входит бывший участник Ophthalamia.
Трэклист:
01. Semi-Automatic
02. Synthetic Generation
03. New Dead Nation
04. Syndrome
05. Modern Death
06. Little Angel
07. The Revolution Exodus
08. Damn Me
09. The Rape of Virtue
10. Genocide
11. No Light to Shun
12. White Wedding
13. Our God the Drugs
Отчёт EAC об извлечении, выполненном 16. ноября 2007, 19:23 для диска:
Deathstars / Synthetic Generation
Дисковод: _NEC DVD_RW ND-3550A Adapter: 5 ID: 0
Режим чтения: Достоверный (C2: нет, Точный поток: да, Отключение кэша: да)
Коррекция смещения при чтении: 48
Способность читать области Lead-in и Lead-out : Нет
Выходной формат: Внутренние WAV-операции
44.100 Гц; 16 бит; стерео
Другие параметры:
Заполнение пропущенных сэмплов тишиной : Да
Удаление блоков с тишиной в начале и конце : Нет
Установленный внешний ASPI-интерфейс
Характеристики диапазона извлечения и сообщения об ошибках
Выбранный диапазон
Имя файла D:\Deathstars - Synthetic Generation.wav
Пиковый уровень 99.2 %
Качество диапазона 99.9 %
CRC 541AF4BC
Копирование... OK
Ошибок не произошло
Конец отчёта
1. Tongues
2. Blitzkrieg Boom
3. Motherzone
4. Cyanide
5. The Greatest Fight On Earth
6. Play God
7. Trinity Fields
8. The Last Ammunition
9. Virtue To Vice
10. Death In Vogue
11. Termination Bliss
12. Termination Bliss [Piano Remix] (Bonus Track)
13. Blitzkrieg [Driven On Remix] (Bonus Track)
Отчёт EAC об извлечении, выполненном 6. августа 2007, 5:04 для диска:
Deathstars / Termination Bliss
Дисковод: Optiarc DVD RW AD-7540A Adapter: 0 ID: 0
Режим чтения: Достоверный (C2: нет, Точный поток: да, Отключение кэша: да)
Коррекция смещения при чтении: 48
Способность читать области Lead-in и Lead-out : Нет
Выходной формат: Внутренние WAV-операции
44.100 Гц; 16 бит; стерео
Другие параметры:
Заполнение пропущенных сэмплов тишиной : Да
Удаление блоков с тишиной в начале и конце : Нет
Установленный внешний ASPI-интерфейс
Характеристики диапазона извлечения и сообщения об ошибках
Выбранный диапазон
Имя файла D:\Torrent\Раздачи\(Industrial Metal) Deathstars - Termination Bliss (2006), FLAC (image+.cue), lossless [torrents.ru]\Deathstars - Termination Bliss.wav
Пиковый уровень 98.9 %
Качество диапазона 100.0 %
CRC CBF5C877
Копирование... OK
Ошибок не произошло
Конец отчёта
01. Chertograd
02. Night Electric Night
03. Death Dies Hard
04. The Mark Of The Gun
05. Via The End
06. Blood Stains Blondes
07. Babylon
08. The Fuel Ignites
09. Arclight
10. Venus In Arms
11. Opium
12. Night Electric Night (The Night Ignites Remix)
13. Via The End (Piano Mix)
14. Night Electric Night (Featuring Adrian Erlandsson)
Exact Audio Copy V0.99 prebeta 3 from 28. July 2007
EAC extraction logfile from 27. January 2009, 20:21
Deathstars / Night Electric Night
Used drive : Optiarc DVD RW AD-5170A Adapter: 0 ID: 1
Read mode : Secure
Utilize accurate stream : Yes
Defeat audio cache : Yes
Make use of C2 pointers : No
Read offset correction : 48
Overread into Lead-In and Lead-Out : No
Fill up missing offset samples with silence : Yes
Delete leading and trailing silent blocks : No
Null samples used in CRC calculations : Yes
Used interface : Installed external ASPI interface
Gap handling : Appended to previous track
Used output format : User Defined Encoder
Selected bitrate : 192 kBit/s
Quality : High
Add ID3 tag : No
Command line compressor : D:\Program\Exact Audio Copy\flac.exe
Additional command line options : -8 -A tukey(0.25) -A gauss(0.1875) -b 4096 -V -T "artist=%a" -T "title=%t" -T "album=%g" -T "date=%y" -T "tracknumber=%n" -T "genre=%m" %s --sector-align
TOC of the extracted CD
Track | Start | Length | Start sector | End sector
---------------------------------------------------------
1 | 0:00.00 | 4:45.63 | 0 | 21437
2 | 4:45.63 | 4:04.06 | 21438 | 39743
3 | 8:49.69 | 3:21.33 | 39744 | 54851
4 | 12:11.27 | 4:02.35 | 54852 | 73036
5 | 16:13.62 | 4:07.39 | 73037 | 91600
6 | 20:21.26 | 3:15.38 | 91601 | 106263
7 | 23:36.64 | 4:18.51 | 106264 | 125664
8 | 27:55.40 | 4:00.70 | 125665 | 143734
9 | 31:56.35 | 4:35.16 | 143735 | 164375
10 | 36:31.51 | 4:02.24 | 164376 | 182549
11 | 40:34.00 | 3:43.17 | 182550 | 199291
12 | 44:17.17 | 3:04.74 | 199292 | 213165
13 | 47:22.16 | 3:27.10 | 213166 | 228700
14 | 50:49.26 | 4:04.56 | 228701 | 247056
Track 1
Filename C:\Music\Deathstars\Night Electric Night (FLAC){Text}1-Deathstars-Chertograd.wav
Pre-gap length 0:00:02.00
Peak level 100.0 %
Track quality 100.0 %
Test CRC 78DC59E5
Copy CRC 78DC59E5
Copy OK
Track 2
Filename C:\Music\Deathstars\Night Electric Night (FLAC){Text}2-Deathstars-Night Electric Night.wav
Peak level 100.0 %
Track quality 99.9 %
Test CRC 839F74C8
Copy CRC 839F74C8
Copy OK
Track 3
Filename C:\Music\Deathstars\Night Electric Night (FLAC){Text}3-Deathstars-Death Dies Hard.wav
Peak level 100.0 %
Track quality 100.0 %
Test CRC 7A57F4D0
Copy CRC 7A57F4D0
Copy OK
Track 4
Filename C:\Music\Deathstars\Night Electric Night (FLAC){Text}4-Deathstars-The Mark Of The Gun.wav
Peak level 100.0 %
Track quality 100.0 %
Test CRC 6FD602B7
Copy CRC 6FD602B7
Copy OK
Track 5
Filename C:\Music\Deathstars\Night Electric Night (FLAC){Text}5-Deathstars-Via The End.wav
Peak level 100.0 %
Track quality 100.0 %
Test CRC 886D90C0
Copy CRC 886D90C0
Copy OK
Track 6
Filename C:\Music\Deathstars\Night Electric Night (FLAC){Text}6-Deathstars-Blood Stains Blondes.wav
Peak level 100.0 %
Track quality 100.0 %
Test CRC 00B3A8F3
Copy CRC 00B3A8F3
Copy OK
Track 7
Filename C:\Music\Deathstars\Night Electric Night (FLAC){Text}7-Deathstars-Babylon.wav
Peak level 100.0 %
Track quality 99.9 %
Test CRC ABDEF08D
Copy CRC ABDEF08D
Copy OK
Track 8
Filename C:\Music\Deathstars\Night Electric Night (FLAC){Text}8-Deathstars-The Fuel Ignites.wav
Peak level 100.0 %
Track quality 100.0 %
Test CRC 68485055
Copy CRC 68485055
Copy OK
Track 9
Filename C:\Music\Deathstars\Night Electric Night (FLAC){Text}9-Deathstars-Arclight.wav
Peak level 100.0 %
Track quality 100.0 %
Test CRC E1F8512B
Copy CRC E1F8512B
Copy OK
Track 10
Filename C:\Music\Deathstars\Night Electric Night (FLAC)\10-Deathstars-Venus In Arms.wav
Peak level 100.0 %
Track quality 100.0 %
Test CRC 3DDD2E10
Copy CRC 3DDD2E10
Copy OK
Track 11
Filename C:\Music\Deathstars\Night Electric Night (FLAC)\11-Deathstars-Opium.wav
Peak level 100.0 %
Track quality 100.0 %
Test CRC 27669CCF
Copy CRC 27669CCF
Copy OK
Track 12
Filename C:\Music\Deathstars\Night Electric Night (FLAC)\12-Deathstars-Night Electric Night (The Night Ignites Remix).wav
Peak level 100.0 %
Track quality 100.0 %
Test CRC E0F55369
Copy CRC E0F55369
Copy OK
Track 13
Filename C:\Music\Deathstars\Night Electric Night (FLAC)\13-Deathstars-Via The End (Piano Mix).wav
Peak level 100.0 %
Track quality 100.0 %
Test CRC C63AE00D
Copy CRC C63AE00D
Copy OK
Track 14
Filename C:\Music\Deathstars\Night Electric Night (FLAC)\14-Deathstars-Night Electric Night (Featuring Adrian Erlandsson).wav
Peak level 100.0 %
Track quality 99.9 %
Test CRC CD7DD03D
Copy CRC CD7DD03D
Copy OK
No errors occurred
End of status report
ar
apach
apach
мда, скачать три альбома с этого торрента и соединить в один... гениально
Mezko
Mezko
Mezko
ты уверен в этом?ты видел здесь хоть один альбом Deathstars в лосслесс? Идиотизм...
apach
apach
спасибо, обожаю эту группу и такую музыку
mort
mort

Имя:
E-mail (не обязательно):
Используется для уведомления о правильности ответа.
адм