как разбогатеть как стать богатым

(Melodic Death Metal) Insomnium - Across The Dark (Limited Edition) - 2009, FLAC (tracks), lossless

Insomnium - Across The Dark (Limited Edition)

Страна: Finland
Жанр: Melodic Death Metal
Год выпуска: 2009
Формат: FLAC (tracks)
Битрейт аудио: lossless
Продолжительность: 58:29
Трэклист:
01. Equivalence 3:18
02. Down With the Sun 4:23
03. Where the Last Wave Broke 5:03
04. The Harrowing Years 6:39
05. Against the Stream 6:11
06. Lay of the Autumn 9:08
07. Into the Woods 5:08
08. Weighed Down with Sorrow 5:51
09. The New Beginning (Bonus Track) 7:15
10. Into the Evernight (Bonus Track) 5:28
Exact Audio Copy V0.99 prebeta 5 from 4. May 2009

EAC extraction logfile from 14. September 2009, 16:32

Insomnium / Across The Dark

Used drive : TSSTcorpCDDVDW TS-L632H Adapter: 2 ID: 0

Read mode : Secure
Utilize accurate stream : Yes
Defeat audio cache : Yes
Make use of C2 pointers : No

Read offset correction : 6
Overread into Lead-In and Lead-Out : No
Fill up missing offset samples with silence : Yes
Delete leading and trailing silent blocks : No
Null samples used in CRC calculations : Yes
Used interface : Native Win32 interface for Win NT & 2000
Gap handling : Appended to previous track

Used output format : User Defined Encoder
Selected bitrate : 1024 kBit/s
Quality : High
Add ID3 tag : No
Command line compressor : C:\Program Files\Exact Audio Copy\Flac\flac.exe
Additional command line options : -8 -V -T "ARTIST=%a" -T "TITLE=%t" -T "ALBUM=%g" -T "DATE=%y" -T "TRACKNUMBER=%n" -T "GENRE=%m" -T "COMMENT=EAC FLAC -8" %s

TOC of the extracted CD

Track | Start | Length | Start sector | End sector
---------------------------------------------------------
1 | 0:00.00 | 3:18.01 | 0 | 14850
2 | 3:18.01 | 4:23.54 | 14851 | 34629
3 | 7:41.55 | 5:03.24 | 34630 | 57378
4 | 12:45.04 | 6:39.55 | 57379 | 87358
5 | 19:24.59 | 6:11.35 | 87359 | 115218
6 | 25:36.19 | 9:08.35 | 115219 | 156353
7 | 34:44.54 | 5:08.62 | 156354 | 179515
8 | 39:53.41 | 5:51.59 | 179516 | 205899
9 | 45:45.25 | 7:15.13 | 205900 | 238537
10 | 53:00.38 | 5:28.67 | 238538 | 263204

Track 1

Filename G:\Music Lossless\Insomnium - Across The Dark (Bonus 2009){Text}1. Insomnium - Equivalence.wav

Pre-gap length 0:00:02.00

Peak level 99.8 %
Track quality 100.0 %
Test CRC 42EAC800
Copy CRC 42EAC800
Track not present in AccurateRip database
Copy OK

Track 2

Filename G:\Music Lossless\Insomnium - Across The Dark (Bonus 2009){Text}2. Insomnium - Down With The Sun.wav

Peak level 99.8 %
Track quality 100.0 %
Test CRC 64966C3E
Copy CRC 64966C3E
Track not present in AccurateRip database
Copy OK

Track 3

Filename G:\Music Lossless\Insomnium - Across The Dark (Bonus 2009){Text}3. Insomnium - Where The Last Wave Broke.wav

Peak level 99.9 %
Track quality 100.0 %
Test CRC D7DF0BDE
Copy CRC D7DF0BDE
Track not present in AccurateRip database
Copy OK

Track 4

Filename G:\Music Lossless\Insomnium - Across The Dark (Bonus 2009){Text}4. Insomnium - The Harrowing Years.wav

Peak level 99.8 %
Track quality 100.0 %
Test CRC 748189ED
Copy CRC 748189ED
Track not present in AccurateRip database
Copy OK

Track 5

Filename G:\Music Lossless\Insomnium - Across The Dark (Bonus 2009){Text}5. Insomnium - Against The Stream.wav

Peak level 99.9 %
Track quality 100.0 %
Test CRC EA3F6504
Copy CRC EA3F6504
Track not present in AccurateRip database
Copy OK

Track 6

Filename G:\Music Lossless\Insomnium - Across The Dark (Bonus 2009){Text}6. Insomnium - Lay Of The Autumn.wav

Peak level 99.8 %
Track quality 100.0 %
Test CRC 94932488
Copy CRC 94932488
Track not present in AccurateRip database
Copy OK

Track 7

Filename G:\Music Lossless\Insomnium - Across The Dark (Bonus 2009){Text}7. Insomnium - Into The Woods.wav

Peak level 99.9 %
Track quality 99.9 %
Test CRC 6F2B68DF
Copy CRC 6F2B68DF
Track not present in AccurateRip database
Copy OK

Track 8

Filename G:\Music Lossless\Insomnium - Across The Dark (Bonus 2009){Text}8. Insomnium - Weighed Down With Sorrow.wav

Peak level 99.9 %
Track quality 100.0 %
Test CRC 3EE794F3
Copy CRC 3EE794F3
Track not present in AccurateRip database
Copy OK

Track 9

Filename G:\Music Lossless\Insomnium - Across The Dark (Bonus 2009){Text}9. Insomnium - The New Beginning (bonus track).wav

Peak level 99.8 %
Track quality 100.0 %
Test CRC 9E6882CB
Copy CRC 9E6882CB
Track not present in AccurateRip database
Copy OK

Track 10

Filename G:\Music Lossless\Insomnium - Across The Dark (Bonus 2009)\10. Insomnium - Into The Evernight (bonus track).wav

Peak level 100.0 %
Track quality 100.0 %
Test CRC 0CE990A7
Copy CRC 0CE990A7
Track not present in AccurateRip database
Copy OK

None of the tracks are present in the AccurateRip database

No errors occurred

End of status report


apach
apach

Имя:
E-mail (не обязательно):
Используется для уведомления о правильности ответа.
адм