как разбогатеть как стать богатым

(Melodic Death Metal) Scream In Darkness - Против Течения Боли - 2009, FLAC (tracks), lossless

Scream In Darkness - Против Течения Боли

Страна: Russia
Жанр: Melodic Death Metal
Год выпуска: 2009
Формат: FLAC (tracks)
Битрейт аудио: lossless
Продолжительность: 43:53
Трэклист:
01. Интро (1:16)
02. Не Смотри Мне в Глаза (3:26)
03. Меченый Страхом (3:56)
04. Колыбель Небес (Под Могильной Плитой) (5:15)
05. Бездна (4:19)
06. Ступени (Только Вниз) (3:33)
07. Месть II (4:02)
08. Голод (3:34)
09. Зеркальная Стена (4:04)
10. Тишина (4:01)
11. Кровь (4:10)
12. Монтекки и Капулетти (2:17)
Exact Audio Copy V0.99 prebeta 4 from 23. January 2008

Отчёт EAC об извлечении, выполненном 26. апреля 2009, 12:03

Scream in Darkness / Против Течения Боли

Дисковод: Optiarc DVD RW AD-7173S Adapter: 1 ID: 0

Режим чтения : Достоверность
Использование точного потока : Да
Отключение кэша аудио : Да
Использование указателей C2 : Нет

Коррекция смещения при чтении : 48
Способность читать области Lead-in и Lead-out : Нет
Заполнение пропущенных сэмплов тишиной : Да
Удаление блоков с тишиной в начале и конце : Нет
При вычислениях CRC использовались нулевые сэмплы : Нет
Интерфейс : Встроенный Win32-интерфейс для Win NT/2000
Обработка зазоров : Не обнаружено, добавлено к предыдущему треку

Выходной формат : Пользовательский кодировщик
Выбранный битрейт : 1024 kBit/s
Качество : Высокий
Добавление ID3-тэга : Нет
Утилита сжатия : C:\Program Files (x86)\Exact Audio Copy\FLAC\FLAC.EXE
Дополнительные параметры : -8 -V -T "ARTIST=%a" -T "TITLE=%t" -T "ALBUM=%g" -T "DATE=%y" -T "TRACKNUMBER=%n" -T "GENRE=%m" -T "COMMENT=EAC FLAC -8" %s

TOC извлечённого CD

Трек | Старт | Длительность | Начальный сектор | Конечный сектор
---------------------------------------------------------------------
1 | 0:00.00 | 1:16.31 | 0 | 5730
2 | 1:16.31 | 3:25.53 | 5731 | 21158
3 | 4:42.09 | 3:56.23 | 21159 | 38881
4 | 8:38.32 | 5:14.54 | 38882 | 62485
5 | 13:53.11 | 4:19.08 | 62486 | 81918
6 | 18:12.19 | 3:33.19 | 81919 | 97912
7 | 21:45.38 | 4:02.06 | 97913 | 116068
8 | 25:47.44 | 3:34.16 | 116069 | 132134
9 | 29:21.60 | 4:03.52 | 132135 | 150411
10 | 33:25.37 | 4:00.55 | 150412 | 168466
11 | 37:26.17 | 4:09.38 | 168467 | 187179
12 | 41:35.55 | 2:16.46 | 187180 | 197425

Трек 1

Имя файла C:\Users\Alser\Documents\Scream in Darkness\Против Течения Боли{Text}1 - Интро.wav

Пиковый уровень 97.7 %
Качество трека 100.0 %
CRC копии 16B8D7D8
Копирование... OK

Трек 2

Имя файла C:\Users\Alser\Documents\Scream in Darkness\Против Течения Боли{Text}2 - Не Смотри Мне в Глаза.wav

Пиковый уровень 100.0 %
Качество трека 100.0 %
CRC копии 2A354FCA
Копирование... OK

Трек 3

Имя файла C:\Users\Alser\Documents\Scream in Darkness\Против Течения Боли{Text}3 - Меченый Страхом.wav

Пиковый уровень 100.0 %
Качество трека 100.0 %
CRC копии 5101FA69
Копирование... OK

Трек 4

Имя файла C:\Users\Alser\Documents\Scream in Darkness\Против Течения Боли{Text}4 - Колыбель Небес (Под Могильной Плитой).wav

Пиковый уровень 100.0 %
Качество трека 100.0 %
CRC копии E74679AA
Копирование... OK

Трек 5

Имя файла C:\Users\Alser\Documents\Scream in Darkness\Против Течения Боли{Text}5 - Бездна.wav

Пиковый уровень 100.0 %
Качество трека 100.0 %
CRC копии 9F942F9A
Копирование... OK

Трек 6

Имя файла C:\Users\Alser\Documents\Scream in Darkness\Против Течения Боли{Text}6 - Ступени (Только Вниз).wav

Пиковый уровень 100.0 %
Качество трека 100.0 %
CRC копии 5E15E9A4
Копирование... OK

Трек 7

Имя файла C:\Users\Alser\Documents\Scream in Darkness\Против Течения Боли{Text}7 - Месть II.wav

Пиковый уровень 100.0 %
Качество трека 99.9 %
CRC копии 0D0F207A
Копирование... OK

Трек 8

Имя файла C:\Users\Alser\Documents\Scream in Darkness\Против Течения Боли{Text}8 - Голод.wav

Пиковый уровень 100.0 %
Качество трека 100.0 %
CRC копии F6465FFC
Копирование... OK

Трек 9

Имя файла C:\Users\Alser\Documents\Scream in Darkness\Против Течения Боли{Text}9 - Зеркальная Стена.wav

Пиковый уровень 100.0 %
Качество трека 100.0 %
CRC копии 02275F0D
Копирование... OK

Трек 10

Имя файла C:\Users\Alser\Documents\Scream in Darkness\Против Течения Боли\10 - Тишина.wav

Пиковый уровень 100.0 %
Качество трека 99.9 %
CRC копии 0030C563
Копирование... OK

Трек 11

Имя файла C:\Users\Alser\Documents\Scream in Darkness\Против Течения Боли\11 - Кровь.wav

Пиковый уровень 100.0 %
Качество трека 100.0 %
CRC копии 4AF4E45C
Копирование... OK

Трек 12

Имя файла C:\Users\Alser\Documents\Scream in Darkness\Против Течения Боли\12 - Монтекки и Капулетти.wav

Пиковый уровень 100.0 %
Качество трека 100.0 %
CRC копии DC7152D1
Копирование... OK

Ошибок не произошло

Конец отчёта


apach
apach
ay спасибо
sergey
sergey
apach
спс)

блин, нахера качал... ведь уже скачивал в мр3... ну лан....
Eddie_imp
Eddie_imp

Имя:
E-mail (не обязательно):
Используется для уведомления о правильности ответа.
адм