как разбогатеть как стать богатым

(Nu-Metal/Modern Metal) [AMATORY] - (5 Albums + 1 EP + 1 Live + 4 Single ) 2003-2008, APE, FLAC (tracks), lossless




Страна: Russia || Жанр: Nu-Metal/Modern Metal || Год выпуска: 2003-2008 || Формат: APE, FLAC (tracks) || Битрейт аудио: lossless


Albums
01. Восковый Дождь (2:21)
02. Страница Шесть (4:04)
03. Мимикрия (4:21)
04. Молочный Коктейль (3:46)
05. Осколки (3:19)
06. Две Жизни (4:29)
07. Вечно Прячется Судьба (3:44)
08. 59 (3:27)
09. Не Отсюда (2:57)
10. Клетка (4:12)
EAC extraction logfile from 5. January 2008, 18:53 for CD
Amatory / Вечно Прячется Судьба

Used drive : _NEC DVD_RW ND-4550A Adapter: 1 ID: 0
Read mode : Secure with NO C2, accurate stream, disable cache
Read offset correction : 48
Overread into Lead-In and Lead-Out : No

Used output format : Internal WAV Routines
44.100 Hz; 16 Bit; Stereo

Other options :
Fill up missing offset samples with silence : Yes
Delete leading and trailing silent blocks : No
Native Win32 interface for Win NT & 2000

Range status and errors
Selected range
Filename E:\lossless\Amatory - Вечно Прячется Судьба\Amatory - Вечно Прячется Судьба.wav

Peak level 97.7 %
Range quality 100.0 %
CRC E183946E
Copy OK

No errors occured

End of status report
01. Две Жизни (4:53)
02. Страница 6 (4:04)
03. Осколки (3:19)
04. Я Вижу Ложь (3:29)
05. Трансплантанты (3:10)
06. Не Доживаю (2:31)
07. Можешь Не Вспоминать (4:10)
08. Без Слез (5:32)
09. ... (4:06)
10. 59 (Garis 22 mix) (5:15)
Отчёт EAC об извлечении, выполненном 15. декабря 2007, 14:06 для диска:
Amatory / Две жизни

Дисковод: BENQ DVD DD DW1640 Adapter: 1 ID: 0
Режим чтения: Достоверный (C2: нет, Точный поток: да, Отключение кэша: да)
Коррекция смещения при чтении: 618
Способность читать области Lead-in и Lead-out : Нет

Выходной формат: Внутренние WAV-операции
44.100 Гц; 16 бит; стерео

Другие параметры:
Заполнение пропущенных сэмплов тишиной : Да
Удаление блоков с тишиной в начале и конце : Нет
Встроенный Win32-интерфейс для Win NT/2000

Характеристики диапазона извлечения и сообщения об ошибках
Выбранный диапазон
Имя файла D:\Скрины\Amatory - Две жизни.wav

Пиковый уровень 100.0 %
Качество диапазона 100.0 %
CRC BC3B62FE
Копирование... OK

Ошибок не произошло

Конец отчёта
01. Километры (4:16)
02. Сотни Раз (4:19)
03. Беги Вслед За Мной (3:06)
04. Чёрно-Белые Дни (4:19)
05. Сильнее Меня (3:16)
06. Я Остаюсь (3:12)
07. Сломанный Мир (4:05)
08. Глубоко Внутри (3:18)
09. Поцелуй Мою Кровь (2:55)
10. PS (4:59)
11. Когда Я Забуду (7:55)
EAC extraction logfile from 28. January 2007, 18:07 for CD
Amatory / Неизбежность

Used drive : TEAC CD-W548E Adapter: 1 ID: 1
Read mode : Secure with NO C2, accurate stream, disable cache
Combined read/write offset correction : 0
Overread into Lead-In and Lead-Out : No

Used output format : Internal WAV Routines
44.100 Hz; 16 Bit; Stereo

Other options :
Fill up missing offset samples with silence : Yes
Delete leading and trailing silent blocks : No
Native Win32 interface for Win NT & 2000

Range status and errors
Selected range
Filename C:\Documents and Settings\KanZleR\Мои документы\Downloads\Amatory - Неизбежность.wav

Peak level 100.0 %
Range quality 100.0 %
CRC 5DEEB070
Copy OK

No errors occured

End of status report
01. Помнишь (1:23)
02. Семь Шагов (3:30)
03. Здесь И Сейчас (4:21)
04. Снег В Аду (3:25)
05. Меня Больше Нет (3:41)
06. Обернуться Назад (4:34)
07. Отдай Свой Крик (3:03)
08. Преступление Против Времени (4:48)
09. Слишком Поздно... (4:09)
10. Моя Правда (4:20)
11. Эффект Бабочки (4:12)
12. Теряешь Меня (4:29)
Отчёт EAC об извлечении, выполненном 29. ноября 2006, 1:47 для диска:
Amatory / Книга Мертвых

Дисковод: TEAC DV-W516E Adapter: 0 ID: 0
Режим чтения: Достоверный (C2: нет, Точный поток: да, Отключение кэша: нет)
Комбинированное смещение чтения/записи: 0
Способность читать области Lead-in и Lead-out : Нет

Выходной формат: C:\Program Files\Monkey's Audio\MAC.exe (Monkey's Audio (без потерь))
High Lossless Compression
Дополнительные параметры: %d -t "Artist=%a" -t "Title=%t" -t "Album=%g" -t "Year=%y" -t "Track=%n" -t "Genre=%m" "C:\Program Files\Monkey's Audio\mac.exe" %s %d -c4000

Другие параметры:
Заполнение пропущенных сэмплов тишиной : Да
Удаление блоков с тишиной в начале и конце : Нет
Установленный внешний ASPI-интерфейс

Характеристики диапазона извлечения и сообщения об ошибках
Выбранный диапазон
Имя файла E:\MUSIC\Amatory - Книга Мертвых.wav

Пиковый уровень 99.8 %
Качество диапазона 100.0 %
CRC 8F13471D
Копирование... OK

Ошибок не произошло

Конец отчёта
01. Пыль. Свет. Тишина (1:43)
02. В глазах твоя жизнь (4:21)
03. Спарта (4:35)
04. Дыши со мной (3:13)
05. Моя месть (4:12)
06. Сжигая мосты (5:06)
07. Вы все лишены своей жизни (3:44)
08. Новый герой (3:51)
09. Прямо сейчас (В наших руках) (3:43)
10. Зачем мечтать (4:16)
11. Нас никто не остановит (4:14)
12. Падая вниз (5:09)
13. Время придумало смерть (4:32)
14. Нить длиною в жизнь (8:16)
Exact Audio Copy V0.99 prebeta 4 from 23. January 2008

Отчёт EAC об извлечении, выполненном 21. декабря 2008, 17:21

Amatory / VII

Дисковод: Optiarc DVD RW AD-7170A Adapter: 0 ID: 0

Режим чтения : Достоверность
Использование точного потока : Да
Отключение кэша аудио : Да
Использование указателей C2 : Нет

Коррекция смещения при чтении : 48
Способность читать области Lead-in и Lead-out : Нет
Заполнение пропущенных сэмплов тишиной : Да
Удаление блоков с тишиной в начале и конце : Нет
При вычислениях CRC использовались нулевые сэмплы : Да
Интерфейс : Встроенный Win32-интерфейс для Win NT/2000

Выходной формат : Внутренние WAV-операции
Формат сэмплов : 44.100 Гц; 16 бит; стерео

TOC извлечённого CD

Трек | Старт | Длительность | Начальный сектор | Конечный сектор
---------------------------------------------------------------------
1 | 0:00.00 | 1:43.27 | 0 | 7751
2 | 1:43.27 | 4:20.72 | 7752 | 27323
3 | 6:04.24 | 4:35.31 | 27324 | 47979
4 | 10:39.55 | 3:13.08 | 47980 | 62462
5 | 13:52.63 | 4:12.19 | 62463 | 81381
6 | 18:05.07 | 5:06.21 | 81382 | 104352
7 | 23:11.28 | 3:43.65 | 104353 | 121142
8 | 26:55.18 | 3:51.03 | 121143 | 138470
9 | 30:46.21 | 3:43.10 | 138471 | 155205
10 | 34:29.31 | 4:15.74 | 155206 | 174404
11 | 38:45.30 | 4:14.02 | 174405 | 193456
12 | 42:59.32 | 5:08.41 | 193457 | 216597
13 | 48:07.73 | 4:31.51 | 216598 | 236973
14 | 52:39.49 | 8:16.36 | 236974 | 274209

Характеристики диапазона извлечения и сообщения об ошибках

Выбранный диапазон

Имя файла C:\Downloads\[2008] VII (lossless)\Amatory - VII.wav

Пиковый уровень 98.8 %
Качество диапазона 99.9 %
CRC копии 2747647E
Копирование... OK

Ошибок не произошло

Конец отчёта
Singles & EP
01. Черно-Белые Дни (Clip Version) (4:09)
02. С.Т.Е.К.А.Я (2:50)
03. Другая Жизнь (4:23)
04. Беги Вслед За Мной (Live) (3:16)
05. Я Остаюсь / Страница VI (Live) (6:45)
06. P.S. (Live) (4:48)
Exact Audio Copy V0.99 prebeta 5 from 4. May 2009

Отчёт EAC об извлечении, выполненном 11. июля 2009, 12:53

[AMATORY] / Чёрно-белые дни

Дисковод: Optiarc DVD RW AD-7170A Adapter: 1 ID: 0

Режим чтения : Достоверность
Использование точного потока : Да
Отключение кэша аудио : Да
Использование указателей C2 : Нет

Коррекция смещения при чтении : 48
Способность читать области Lead-in и Lead-out : Нет
Заполнение пропущенных сэмплов тишиной : Да
Удаление блоков с тишиной в начале и конце : Нет
При вычислениях CRC использовались нулевые сэмплы : Да
Интерфейс : Установленный внешний ASPI-интерфейс
Обработка зазоров : Добавлено к предыдущему треку

Выходной формат : Пользовательский кодировщик
Выбранный битрейт : 320 kBit/s
Качество : Высокий
Добавление ID3-тэга : Нет
Утилита сжатия : C:\Program Files\Exact Audio Copy\Flac\flac.exe
Дополнительные параметры : -V -8 -T "artist=%a" -T "title=%t" -T "album=%g" -T "date=%y" -T "tracknumber=%n" -T "genre=%m" %s

TOC извлечённого CD

Трек | Старт | Длительность | Начальный сектор | Конечный сектор
---------------------------------------------------------------------
1 | 0:00.00 | 4:06.52 | 0 | 18501
2 | 4:06.52 | 2:47.68 | 18502 | 31094
3 | 6:54.45 | 4:20.35 | 31095 | 50629
4 | 11:15.05 | 3:13.30 | 50630 | 65134
5 | 14:28.35 | 6:42.23 | 65135 | 95307
6 | 21:10.58 | 4:45.72 | 95308 | 116754

Трек 1

Имя файла C:\[2005] Чёрно-белые дни [FLAC]{Text}1 - Чёрно-белые дни (Single Version).wav

Длина предзазора 0:00:02.00

Пиковый уровень 100.0 %
Качество трека 99.9 %
CRC теста 84FD8BE9
CRC копии 84FD8BE9
Копирование... OK

Трек 2

Имя файла C:\[2005] Чёрно-белые дни [FLAC]{Text}2 - С.Т.Е.К.А.Я..wav

Пиковый уровень 100.0 %
Качество трека 100.0 %
CRC теста 3810CE88
CRC копии 3810CE88
Копирование... OK

Трек 3

Имя файла C:\[2005] Чёрно-белые дни [FLAC]{Text}3 - Другая жизнь.wav

Пиковый уровень 100.0 %
Качество трека 100.0 %
CRC теста 556A2329
CRC копии 556A2329
Копирование... OK

Трек 4

Имя файла C:\[2005] Чёрно-белые дни [FLAC]{Text}4 - Беги вслед за мной (live).wav

Пиковый уровень 100.0 %
Качество трека 100.0 %
CRC теста D5B73F42
CRC копии D5B73F42
Копирование... OK

Трек 5

Имя файла C:\[2005] Чёрно-белые дни [FLAC]{Text}5 - Я остаюсь - Странца VI (live).wav

Пиковый уровень 100.0 %
Качество трека 100.0 %
CRC теста AFF2219D
CRC копии AFF2219D
Копирование... OK

Трек 6

Имя файла C:\[2005] Чёрно-белые дни [FLAC]{Text}6 - P.S. (live).wav

Пиковый уровень 100.0 %
Качество трека 100.0 %
CRC теста 3DF9C8ED
CRC копии 3DF9C8ED
Копирование... OK

Ошибок не произошло

Конец отчёта
01. Don't F**k With My Heart (3:49)
02. Ace Of Spades (3:12)
03. Into The Fire (2:43)
04. Крылья (3:41)
05. Париж (1:49)
06. Rock Baby (4:20)
Exact Audio Copy V0.99 prebeta 4 from 23. January 2008

Отчёт EAC об извлечении, выполненном 4. октября 2008, 16:47

[AMATORY] / Discovery

Дисковод: Optiarc DVD RW AD-7170A Adapter: 0 ID: 0

Режим чтения : Достоверность
Использование точного потока : Да
Отключение кэша аудио : Да
Использование указателей C2 : Нет

Коррекция смещения при чтении : 48
Способность читать области Lead-in и Lead-out : Нет
Заполнение пропущенных сэмплов тишиной : Да
Удаление блоков с тишиной в начале и конце : Нет
При вычислениях CRC использовались нулевые сэмплы : Да
Интерфейс : Встроенный Win32-интерфейс для Win NT/2000

Выходной формат : Внутренние WAV-операции
Формат сэмплов : 44.100 Гц; 16 бит; стерео

TOC извлечённого CD

Трек | Старт | Длительность | Начальный сектор | Конечный сектор
---------------------------------------------------------------------
1 | 0:00.00 | 3:48.72 | 0 | 17171
2 | 3:48.72 | 3:11.56 | 17172 | 31552
3 | 7:00.53 | 2:43.21 | 31553 | 43798
4 | 9:43.74 | 3:40.67 | 43799 | 60365
5 | 13:24.66 | 1:49.11 | 60366 | 68551
6 | 15:14.02 | 4:19.58 | 68552 | 88034

Характеристики диапазона извлечения и сообщения об ошибках

Выбранный диапазон

Имя файла C:\Downloads\[2006] Discovery (lossless)\[AMATORY] - Discovery.wav

Пиковый уровень 100.0 %
Качество диапазона 100.0 %
CRC копии 6BE93316
Копирование... OK

Ошибок не произошло

Конец отчёта
01. Преступление против времени (Single_edit_mix) (4:21)
02. Преступление против времени (Remix_by_Max_Freeze) (7:29)
03. Осколки (LIVE) (4:18)
04. P.S. (LIVE) (4:31)
05. Чёрно-Белые дни (LIVE) (4:32)
Отчёт EAC об извлечении, выполненном 25. декабря 2007, 18:54 для диска:
[AMATORY] / Преступление против времени [Single]

Дисковод: HL-DT-STDVDRAM GSA-H10N Adapter: 0 ID: 0
Режим чтения: Достоверный (C2: нет, Точный поток: да, Отключение кэша: да)
Коррекция смещения при чтении: 667
Способность читать области Lead-in и Lead-out : Нет

Выходной формат: Внутренние WAV-операции
44.100 Гц; 16 бит; стерео

Другие параметры:
Заполнение пропущенных сэмплов тишиной : Да
Удаление блоков с тишиной в начале и конце : Нет
Встроенный Win32-интерфейс для Win NT/2000

Характеристики диапазона извлечения и сообщения об ошибках
Выбранный диапазон
Имя файла D:\Documents and Settings\SN@KE_Dog\Мои документы\Моя музыка\Русская альтернативная музыка\[AMATORY] - Преступление против времени [Single]\[AMATORY] - Преступление против времени [Single].wav

Пиковый уровень 99.8 %
Качество диапазона 99.9 %
CRC 26D0AF44
Копирование... OK

Ошибок не произошло

Конец отчёта
01. Слишком Поздно... (ALBUM_VERSION) (4:11)
02. Слишком Поздно... (UNDERBIZ_MIX) (4:32)
03. Слишком Поздно... (INSTR._VERSION) (4:09)
04. Преступление Против Времени (INSTR._VERSION) (4:48)
05. Эффект Бабочки (INSTR._VERSION) (4:17)
06. Final Sleep (NASUM COVER) (1:47)
Exact Audio Copy V0.99 prebeta 3 from 28. July 2007

Отчёт EAC об извлечении, выполненном 2. февраля 2008, 0:30

Amatory / Слишком Поздно

Дисковод: _NEC DVD_RW ND-4571A Adapter: 5 ID: 0

Режим чтения : Достоверность
Использование точного потока : Да
Отключение кэша аудио : Да
Использование указателей C2 : Нет

Коррекция смещения при чтении : 48
Способность читать области Lead-in и Lead-out : Нет
Заполнение пропущенных сэмплов тишиной : Да
Удаление блоков с тишиной в начале и конце : Нет
При вычислениях CRC использовались нулевые сэмплы : Да
Интерфейс : Установленный внешний ASPI-интерфейс

Выходной формат : Внутренние WAV-операции
Формат сэмплов : 44.100 Гц; 16 бит; стерео

TOC извлечённого CD

Трек | Старт | Длительность | Начальный сектор | Конечный сектор
---------------------------------------------------------------------
1 | 0:00.00 | 4:10.58 | 0 | 18807
2 | 4:10.58 | 4:31.49 | 18808 | 39181
3 | 8:42.32 | 4:09.35 | 39182 | 57891
4 | 12:51.67 | 4:47.62 | 57892 | 79478
5 | 17:39.54 | 4:17.06 | 79479 | 98759
6 | 21:56.60 | 1:46.64 | 98760 | 106773
7 | 26:15.49 | 26:17.37 | 118174 | 236485

Характеристики диапазона извлечения и сообщения об ошибках

Выбранный диапазон

Имя файла C:\Documents and Settings\Администратор\Мои документы\Моя музыка\Amatory\2007 - Слишком Поздно\Amatory - Слишком Поздно.wav

Пиковый уровень 100.0 %
Качество диапазона 100.0 %
CRC копии 95012A89
Копирование... OK

Ошибок не произошло

Конец отчёта
01. Беги вслед за мной (Remix) (4:01)
02. Чёрно-белые дни (Remix) (5:46)
03. Дыши со мной (3:13)
04. Вы все лишены своей жизни (3:32)
05. Дыши со мной (Drums) (2:52)
Exact Audio Copy V0.99 prebeta 4 from 23. January 2008

Отчёт EAC об извлечении, выполненном 21. декабря 2008, 17:21

Amatory / VII

Дисковод: Optiarc DVD RW AD-7170A Adapter: 0 ID: 0

Режим чтения : Достоверность
Использование точного потока : Да
Отключение кэша аудио : Да
Использование указателей C2 : Нет

Коррекция смещения при чтении : 48
Способность читать области Lead-in и Lead-out : Нет
Заполнение пропущенных сэмплов тишиной : Да
Удаление блоков с тишиной в начале и конце : Нет
При вычислениях CRC использовались нулевые сэмплы : Да
Интерфейс : Встроенный Win32-интерфейс для Win NT/2000

Выходной формат : Внутренние WAV-операции
Формат сэмплов : 44.100 Гц; 16 бит; стерео

TOC извлечённого CD

Трек | Старт | Длительность | Начальный сектор | Конечный сектор
---------------------------------------------------------------------
1 | 0:00.00 | 1:43.27 | 0 | 7751
2 | 1:43.27 | 4:20.72 | 7752 | 27323
3 | 6:04.24 | 4:35.31 | 27324 | 47979
4 | 10:39.55 | 3:13.08 | 47980 | 62462
5 | 13:52.63 | 4:12.19 | 62463 | 81381
6 | 18:05.07 | 5:06.21 | 81382 | 104352
7 | 23:11.28 | 3:43.65 | 104353 | 121142
8 | 26:55.18 | 3:51.03 | 121143 | 138470
9 | 30:46.21 | 3:43.10 | 138471 | 155205
10 | 34:29.31 | 4:15.74 | 155206 | 174404
11 | 38:45.30 | 4:14.02 | 174405 | 193456
12 | 42:59.32 | 5:08.41 | 193457 | 216597
13 | 48:07.73 | 4:31.51 | 216598 | 236973
14 | 52:39.49 | 8:16.36 | 236974 | 274209

Характеристики диапазона извлечения и сообщения об ошибках

Выбранный диапазон

Имя файла C:\Downloads\[2008] VII (lossless)\Amatory - VII.wav

Пиковый уровень 98.8 %
Качество диапазона 99.9 %
CRC копии 2747647E
Копирование... OK

Ошибок не произошло

Конец отчёта
Live
01. Помнишь? (1:52)
02. Эффект бабочки (4:14)
03. Осколки (4:01)
04. СТЕКАЯ (3:31)
05. Две Жизни (4:20)
06. Черно-белые дни (3:55)
07. Страница 6 (4:06)
08. Сломанный мир (4:36)
09. Поцелуй мою кровь (4:17)
10. Преступление против времени (4:50)
11. Семь шагов (3:54)
12. Беги вслед за мной (3:27)
13. PS (5:17)
14. Вечно прячется судьба (3:27)
15. Слишком поздно (4:19)
16. Я остаюсь (3:21)
17. Клетка (4:58)
18. Снег в аду (5:15)
Отчёт EAC об извлечении, выполненном 18. мая 2008, 16:11
Amatory / Live Evil
Дисковод: PIONEER DVD-RW DVR-112D Adapter: 0 ID: 0
Режим чтения : Достоверность
Использование точного потока : Да
Отключение кэша аудио : Да
Использование указателей C2 : Нет
Коррекция смещения при чтении : 48
Способность читать области Lead-in и Lead-out : Нет
Заполнение пропущенных сэмплов тишиной : Да
Удаление блоков с тишиной в начале и конце : Нет
При вычислениях CRC использовались нулевые сэмплы : Да
Интерфейс : Встроенный Win32-интерфейс для Win NT/2000
Выходной формат : Пользовательский кодировщик
Выбранный битрейт : 768 kBit/s
Качество : Высокий
Добавление ID3-тэга : Нет
Утилита сжатия : C:\Program Files\Exact Audio Copy\FLAC\FLAC.EXE
Дополнительные параметры : -6 -V -T "ARTIST=%a" -T "TITLE=%t" -T "ALBUM=%g" -T "DATE=%y" -T "TRACKNUMBER=%n" -T "GENRE=%m" -T "COMMENT=%e" %s -o %d
TOC извлечённого CD
Трек | Старт | Длительность | Начальный сектор | Конечный сектор
---------------------------------------------------------------------
1 | 0:00.00 | 1:51.39 | 0 | 8363
2 | 1:51.39 | 4:14.09 | 8364 | 27422
3 | 6:05.48 | 4:01.00 | 27423 | 45497
4 | 10:06.48 | 3:30.62 | 45498 | 61309
5 | 13:37.35 | 4:19.49 | 61310 | 80783
6 | 17:57.09 | 3:55.25 | 80784 | 98433
7 | 21:52.34 | 4:06.03 | 98434 | 116886
8 | 25:58.37 | 4:36.29 | 116887 | 137615
9 | 30:34.66 | 4:16.62 | 137616 | 156877
10 | 34:51.53 | 4:49.39 | 156878 | 178591
11 | 39:41.17 | 3:53.69 | 178592 | 196135
12 | 43:35.11 | 3:26.72 | 196136 | 211657
13 | 47:02.08 | 5:17.13 | 211658 | 235445
14 | 52:19.21 | 3:26.67 | 235446 | 250962
15 | 55:46.13 | 4:18.57 | 250963 | 270369
16 | 60:04.70 | 3:21.03 | 270370 | 285447
17 | 63:25.73 | 4:57.41 | 285448 | 307763
18 | 68:23.39 | 5:15.06 | 307764 | 331394
Характеристики диапазона извлечения и сообщения об ошибках
Выбранный диапазон
Имя файла C:\Documents and Settings\Димон\Мои документы\Раздачи\Amatory - Live Evil\Amatory - Live Evil.wav
Пиковый уровень 100.0 %
Качество диапазона 99.9 %
CRC копии 658A1A10
Копирование... OK
Ошибок не произошло
Конец отчёта
Дополнительная информация:
Обновлено 10.07.2009. Добавлен альбом "[2004] Две Жизни" и сингл "[2006] Преступление Против Времени"
Обновлено 23.07.2009. Добавлен сингл "[2005] Чёрно-Белые Дни"
Обновлено 13.09.2009. Добавлен 1 live "[2008] Live Evil" и 2 сингла "[2007] Слишком Поздно", "[2008] Дыши Со Мной"
apach
apach
А нафиг?Эт всё здесь уже есть...Тем более не все альбомы!
FAN S.M.
FAN S.M.
ах..
идеалы
sea_cock
sea_cock

FAN S.M. писал(а):

А нафиг?Эт всё здесь уже есть...Тем более не все альбомы!
В лосслесс я не нашёл
apach
apach
говно группа
SizzaR
SizzaR
группа хараша отдельными треками но даже это заслужавает уважения так как эти отдельные треки дествительно хороши
63serega
63serega
ar
Terael_666
Terael_666
Книга мертвых невь*бись Альбом
Terael_666
Terael_666
Ребята начинают утрачивать популярность и постепенно превращаются в коммерческую группу Стива жаль глохнет он в этой группе но играет офигенно)
Gugl
Gugl
Обновлено 10.07.2009. Добавлен альбом "[2004] Две Жизни" и сингл "[2006] Преступление Против Времени"
apach
apach
Хорошая группа, благодарю. bd
Smoker
Smoker
Книга мёртвых клёвый альбом ... когда -то много слушал их но после нового альбома ваще
слушать перестал...и как Gang умер группа ваще изменилась
cepera
cepera
Правильно Gugl говорит потянула к $ ,не то что раньше и поэтому от старого доброго АМАТОРИ мало что осталось...
Chubka
Chubka

SizzaR писал(а):

говно группа
если тебе ненравится это незначит что это говно!!!!!
kuka
kuka
Спасибо за lossless
CZM
CZM
пожалуйста
apach
apach
apach
Что-то нет раздачи ?
CZM
CZM
Обновлено 23.07.2009. Добавлен сингл "[2005] Чёрно-Белые Дни"
apach
apach

kuka писал(а):

SizzaR писал(а):

говно группа
если тебе ненравится это незначит что это говно!!!!!
мне тоже не нравица.
и вот это уже значит.
nwsx
nwsx

Johnni писал(а):

говно группа
ao не прав ТЫ!!!! an суперррр группа! обажаю слушать за рулём.... ah
*Stas*
*Stas*
Сейчас они как-то опопсели!слушаю пару песен и вс!крылья ваще рульная песня)))хоть и кавер)
Dark666
Dark666
Блииин куда делись старые аматори с их офигенными хардкорскими песнями,первые 3 альбома ваще жесть а дальше идет коммерция,последний альбом вообще убил
Dark666 согласен ay
Gugl
Gugl

Цитата:

(Nu-Metal/Modern Metal)
ART-MITALL

Цитата:

куда делись старые аматори с их офигенными хардкорскими песнями
внотури. верните ХАРД КОРЕ!!!
rotten
rotten

Цитата:

Обновлено 13.09.2009. Добавлен 1 live "[2008] Live Evil" и 2 сингла "[2007] Слишком Поздно", "[2008] Дыши Со Мной"

apach
apach
АААААА!!! bu я bd Деемоон!!! aq
GarFayan
GarFayan
Крови надо мне!! крови дайте!!! аааааааа...как мне нужка ваша кровь, я такой сатанюга!! я вчера козу зарубил, кто со мной мной станюги, объединяемся, мы не такие как все! нас никто не понимает, мы несем истину!!! уаааааа, отрежьте мне руку!!
NoThankS
NoThankS
пепецк! Гавноматори метал?! Тогда Ранетки просто брутал дэт! *ушёл вешаться
Arcsiy
Arcsiy
АААААА!!! NoThankS
Я с тообоой!!! ААААА.... Щас послушаю второй альбом...и пойдё--ооом
на кладбищеееее!!!АААА!!! ИЛИ ПОЛОСНЁМ КОГО НИБУДЬ!!!
GarFayan
GarFayan
ЗАБИРИТЕ МОЮ ДУШУ!!!УУААА!!!
GarFayan
GarFayan
Неверьте им, Люцифер ждет нас в аду!!!! суицыдем не стесняемся!!! прощайте, потокла кровушкаааа.....
NoThankS
NoThankS
(НИКАКИХ ПРИТЕНЗИЙ И ПРЕДУПРЖДЕНИЙ ПО ДАННОМУ ФЛУДУ ВЫШЕ НАПЕЧАТАННОМУ)
В ПЕСНЯХ ИМЕЕТСЯ ТАКОЕ СОДЕРЖАНИЕ(т.е суи++д, моря крови и.т.д)...Мы с NoThankS просто изложили содержание песен в другой форме...
(во избежании нюансов, лучше просто почистите тему.)
GarFayan
GarFayan
Бардак - детки ронетки - это метал форум смекайте , а воще - меньше народу больше кислороду.......

А ну в альтернативу
bersereast
bersereast
правильно! ню-метал это альтернатива, 98% металлистов за метал этот стиль не признают, а оставшиеся 2% вообще не знают что существует этот рэп-метал... фу....
SALIERI
SALIERI
благодарю
vya767
vya767

Имя:
E-mail (не обязательно):
Используется для уведомления о правильности ответа.
адм