как разбогатеть как стать богатым

(DeathCore) Suicide Silence - Suicide Silence (EP) - 2006, FLAC (tracks)

Suicide Silence - Suicide Silence (EP)

Страна: USA
Жанр: DeathCore
Год выпуска: 2006
Формат: FLAC (tracks)
Продолжительность: 16:16
Трэклист:
01. Ending Is The Beginning (2:37)
02. Swarm (3:40)
03. About A Plane Crash (2:48)
04. Distorted Thought Of Addiction (3:55)
05. Destruction Of A Statue (3:16)
Exact Audio Copy V0.99 prebeta 3 from 28. July 2007

EAC extraction logfile from 26. December 2007, 19:56

Suicide Silence / Suicide Silence

Used drive : Memorex 52MAX 325216AJv2 Adapter: 1 ID: 0

Read mode : Secure
Utilize accurate stream : Yes
Defeat audio cache : Yes
Make use of C2 pointers : No

Read offset correction : 6
Overread into Lead-In and Lead-Out : No
Fill up missing offset samples with silence : Yes
Delete leading and trailing silent blocks : No
Null samples used in CRC calculations : Yes
Used interface : Native Win32 interface for Win NT & 2000
Gap handling : Appended to previous track

Used output format : User Defined Encoder
Selected bitrate : 768 kBit/s
Quality : High
Add ID3 tag : No
Command line compressor : C:\Program Files\Exact Audio Copy\FLAC\FLAC.EXE
Additional command line options : -6 -V -T "ARTIST=%a" -T "TITLE=%t" -T "ALBUM=%g" -T "DATE=%y" -T "TRACKNUMBER=%n" -T "GENRE=%m" -T "COMMENT=%e" %s -o %d

TOC of the extracted CD

Track | Start | Length | Start sector | End sector
---------------------------------------------------------
1 | 0:00.00 | 2:37.31 | 0 | 11805
2 | 2:37.31 | 3:40.38 | 11806 | 28343
3 | 6:17.69 | 2:47.74 | 28344 | 40942
4 | 9:05.68 | 3:55.29 | 40943 | 58596
5 | 13:01.22 | 3:16.07 | 58597 | 73303
6 | 18:49.29 | 4:17.67 | 84704 | 104045

Track 1

Filename C:\Users\Brandon\Music{Text}1. Suicide Silence - Ending Is The Beginning.wav

Pre-gap length 0:00:02.00

Peak level 99.5 %
Track quality 99.9 %
Test CRC 5244AE3F
Copy CRC 5244AE3F
Accurately ripped (confidence 1) [87E61F11]
Copy OK

Track 2

Filename C:\Users\Brandon\Music{Text}2. Suicide Silence - Swarm.wav

Peak level 99.5 %
Track quality 99.9 %
Test CRC 160F33F9
Copy CRC 160F33F9
Accurately ripped (confidence 1) [FABF1235]
Copy OK

Track 3

Filename C:\Users\Brandon\Music{Text}3. Suicide Silence - About A Plane Crash.wav

Pre-gap length 0:00:02.00

Peak level 99.5 %
Track quality 99.9 %
Test CRC B35E417E
Copy CRC B35E417E
Accurately ripped (confidence 1) [39DD1EDA]
Copy OK

Track 4

Filename C:\Users\Brandon\Music{Text}4. Suicide Silence - Distorted Thought Of Addiction.wav

Peak level 99.5 %
Track quality 100.0 %
Test CRC B4E1EC9B
Copy CRC B4E1EC9B
Accurately ripped (confidence 1) [7D7A9CC6]
Copy OK

Track 5

Filename C:\Users\Brandon\Music{Text}5. Suicide Silence - Destruction Of A Statue (Live).wav

Pre-gap length 0:00:02.00

Peak level 99.5 %
Track quality 100.0 %
Test CRC 87BB07DF
Copy CRC 87BB07DF
Accurately ripped (confidence 1) [1DCF89D9]
Copy OK

All tracks accurately ripped

No errors occurred

End of status report

apach
apach

Имя:
E-mail (не обязательно):
Используется для уведомления о правильности ответа.
адм