как разбогатеть как стать богатым

(MetalCore/DeathCore/Melodic Death) Salt The Wound - Ares - 2009, FLAC (tracks), lossless

Salt The Wound - Ares



Страна: USA
Жанр: MetalCore/DeathCore/Melodic Death
Год выпуска: 2009
Формат: FLAC (tracks)
Битрейт аудио: lossless
Продолжительность: 40:49
Трэклист:
01. (02:31) Mutations
02. (04:02) From My Hands
03. (03:22) Foot Of The Thrown
04. (03:23) An Era Of Revolution
05. (03:47) When People Are Shameless
06. (03:13) Jafar
07. (03:55) Hail The Locusts
08. (16:36) Take A Bow
Состав группы:
Vince Stropki - Guitar (Bass previously)
Jake Scott - Guitar
Brian "Brooklyn" Martinez - Bass
Rob Walters - Drums
Mat Wessoly - Vocals
Exact Audio Copy V0.99 prebeta 4 from 23. January 2008

EAC extraction logfile from 23. October 2009, 23:26

Salt The Wound / Ares

Used drive : TEAC DVD+-RW DVW28SLC Adapter: 1 ID: 0

Read mode : Secure
Utilize accurate stream : Yes
Defeat audio cache : Yes
Make use of C2 pointers : No

Read offset correction : 48
Overread into Lead-In and Lead-Out : No
Fill up missing offset samples with silence : Yes
Delete leading and trailing silent blocks : No
Null samples used in CRC calculations : Yes
Used interface : Installed external ASPI interface
Gap handling : Appended to previous track

Used output format : User Defined Encoder
Selected bitrate : 192 kBit/s
Quality : High
Add ID3 tag : No
Command line compressor : C:\Program Files\Exact Audio Copy\flac.exe
Additional command line options : -V -8 -T "artist=%a" -T "title=%t" -T "album=%g" -T "date=%y" -T "tracknumber=%n" -T "genre=%m" %s

TOC of the extracted CD

Track | Start | Length | Start sector | End sector
---------------------------------------------------------
1 | 0:00.00 | 2:31.32 | 0 | 11356
2 | 2:31.32 | 4:01.42 | 11357 | 29473
3 | 6:32.74 | 3:22.10 | 29474 | 44633
4 | 9:55.09 | 3:23.27 | 44634 | 59885
5 | 13:18.36 | 3:46.67 | 59886 | 76902
6 | 17:05.28 | 3:13.07 | 76903 | 91384
7 | 20:18.35 | 3:54.61 | 91385 | 108995
8 | 24:13.21 | 16:36.11 | 108996 | 183706

Track 1

Filename C:\Users\Ryan\Documents\Ares [FLAC]{Text}1 - Salt The Wound - Mutations.wav

Pre-gap length 0:00:02.00

Peak level 99.9 %
Track quality 99.9 %
Test CRC DAFB31A1
Copy CRC DAFB31A1
Track not present in AccurateRip database
Copy OK

Track 2

Filename C:\Users\Ryan\Documents\Ares [FLAC]{Text}2 - Salt The Wound - From My Hands.wav

Peak level 99.9 %
Track quality 100.0 %
Test CRC A473E2F5
Copy CRC A473E2F5
Track not present in AccurateRip database
Copy OK

Track 3

Filename C:\Users\Ryan\Documents\Ares [FLAC]{Text}3 - Salt The Wound - Foot Of The Thrown.wav

Peak level 99.9 %
Track quality 100.0 %
Test CRC 64563E4E
Copy CRC 64563E4E
Track not present in AccurateRip database
Copy OK

Track 4

Filename C:\Users\Ryan\Documents\Ares [FLAC]{Text}4 - Salt The Wound - An Era Of Revolution.wav

Peak level 99.9 %
Track quality 100.0 %
Test CRC D702930D
Copy CRC D702930D
Track not present in AccurateRip database
Copy OK

Track 5

Filename C:\Users\Ryan\Documents\Ares [FLAC]{Text}5 - Salt The Wound - When People Are Shameless.wav

Peak level 99.9 %
Track quality 100.0 %
Test CRC 89464D1E
Copy CRC 89464D1E
Track not present in AccurateRip database
Copy OK

Track 6

Filename C:\Users\Ryan\Documents\Ares [FLAC]{Text}6 - Salt The Wound - Jafar.wav

Peak level 99.9 %
Track quality 100.0 %
Test CRC 326AC32D
Copy CRC 326AC32D
Track not present in AccurateRip database
Copy OK

Track 7

Filename C:\Users\Ryan\Documents\Ares [FLAC]{Text}7 - Salt The Wound - Hail The Locusts.wav

Peak level 99.9 %
Track quality 100.0 %
Test CRC B84A291A
Copy CRC B84A291A
Track not present in AccurateRip database
Copy OK

Track 8

Filename C:\Users\Ryan\Documents\Ares [FLAC]{Text}8 - Salt The Wound - Take A Bow.wav

Peak level 99.9 %
Track quality 100.0 %
Test CRC 2470B1F4
Copy CRC 2470B1F4
Track not present in AccurateRip database
Copy OK

None of the tracks are present in the AccurateRip database

No errors occurred

End of status report

Цитата:

Cleveland, OH based Salt the Wound have prepared their long awaited second release on Rotten Records entitled "Ares" in response to 2008's "Carnal Repercussions". 2008 saw the group travel to over 20 countries world wide spreading their intense live show and in your face riffs leaving a path of carnage and destruction behind them for a marathon 10 month run of touring. "Ares" was shaped into the violent onslaught it is from the hardships and victories endured through life on the road. Boasting a new front man, Mat Wessoly, the group has stepped into their own and further refined their unique sound for a record sure to leave its mark in underground metal history. "

(c) amazon.com

apach
apach
Спасибо.
Vetal
Vetal

Имя:
E-mail (не обязательно):
Используется для уведомления о правильности ответа.
адм