как разбогатеть как стать богатым

(MetalCore) I Killed The Prom Queen - 3 альбома - 2003-2006, FLAC (tracks), lossless

I Killed The Prom Queen - 3 альбома
Страна: Australia || Жанр: MetalCore || Год выпуска: 2003-2006 || Формат: FLAC (tracks) ||Битрейт аудио: lossless

Трэклист:
01. ...Forever Will Come to an End
02. When Goodbye Means Forever...
03. To Kill Tomorrow
04. Upon a Rivers Sky
05. Pointed to My Heart
06. Death Certificate of a Beauty Queen
07. Roses, Post Cards and Machine Gun Kisses
08. Forgiveness Is Murder
09. Portraits, Dreams and Memories
10. Are You Playing Dead?
11. My Best Wishes
Exact Audio Copy V0.99 prebeta 4 from 23. January 2008

EAC extraction logfile from 6. May 2009, 23:42

I Killed The Prom Queen / When Goodbye Means Forever

Used drive : PIONEER DVD-RW DVR-216 Adapter: 3 ID: 0

Read mode : Secure
Utilize accurate stream : Yes
Defeat audio cache : Yes
Make use of C2 pointers : No

Read offset correction : 96
Overread into Lead-In and Lead-Out : No
Fill up missing offset samples with silence : Yes
Delete leading and trailing silent blocks : No
Null samples used in CRC calculations : Yes
Used interface : Native Win32 interface for Win NT & 2000
Gap handling : Appended to previous track

Used output format : User Defined Encoder
Selected bitrate : 320 kBit/s
Quality : High
Add ID3 tag : No
Command line compressor : C:\Program Files\Exact Audio Copy\Flac\flac.exe
Additional command line options : -V -8 -T "artist=%a" -T "title=%t" -T "album=%g" -T "date=%y" -T "tracknumber=%n" -T "genre=%m" %s

TOC of the extracted CD

Track | Start | Length | Start sector | End sector
---------------------------------------------------------
1 | 0:00.00 | 0:56.02 | 0 | 4201
2 | 0:56.02 | 3:57.23 | 4202 | 21999
3 | 4:53.25 | 3:36.65 | 22000 | 38264
4 | 8:30.15 | 4:18.47 | 38265 | 57661
5 | 12:48.62 | 3:43.68 | 57662 | 74454
6 | 16:32.55 | 4:54.05 | 74455 | 96509
7 | 21:26.60 | 4:25.00 | 96510 | 116384
8 | 25:51.60 | 4:15.60 | 116385 | 135569
9 | 30:07.45 | 3:50.42 | 135570 | 152861
10 | 33:58.12 | 4:25.65 | 152862 | 172801
11 | 38:24.02 | 4:01.23 | 172802 | 190899

Track 1

Filename E:\Rips\I Killed The Prom Queen - - When Goodbye Means Forever [FLAC]{Text}1 - Intro.wav

Pre-gap length 0:00:02.00

Peak level 93.3 %
Track quality 100.0 %
Test CRC 2B3AFBEA
Copy CRC 2B3AFBEA
Accurately ripped (confidence 1) [67697B1F]
Copy OK

Track 2

Filename E:\Rips\I Killed The Prom Queen - - When Goodbye Means Forever [FLAC]{Text}2 - When Goodbye Means Forever.wav

Peak level 100.0 %
Track quality 100.0 %
Test CRC 1391E2B0
Copy CRC 1391E2B0
Accurately ripped (confidence 1) [E0A4B57D]
Copy OK

Track 3

Filename E:\Rips\I Killed The Prom Queen - - When Goodbye Means Forever [FLAC]{Text}3 - To Kill Tomorrow.wav

Peak level 98.8 %
Track quality 100.0 %
Test CRC C8D9D407
Copy CRC C8D9D407
Accurately ripped (confidence 1) [9E846416]
Copy OK

Track 4

Filename E:\Rips\I Killed The Prom Queen - - When Goodbye Means Forever [FLAC]{Text}4 - Upon A Rivers Sky.wav

Peak level 98.8 %
Track quality 100.0 %
Test CRC 73DCEF85
Copy CRC 73DCEF85
Accurately ripped (confidence 1) [8E39F2B2]
Copy OK

Track 5

Filename E:\Rips\I Killed The Prom Queen - - When Goodbye Means Forever [FLAC]{Text}5 - Pointed To My Heart.wav

Peak level 98.8 %
Track quality 100.0 %
Test CRC 639C8301
Copy CRC 639C8301
Accurately ripped (confidence 1) [A1E2C446]
Copy OK

Track 6

Filename E:\Rips\I Killed The Prom Queen - - When Goodbye Means Forever [FLAC]{Text}6 - Death Certificate For A Beauty Queen.wav

Peak level 98.8 %
Track quality 100.0 %
Test CRC 3A50845B
Copy CRC 3A50845B
Accurately ripped (confidence 1) [3F343E50]
Copy OK

Track 7

Filename E:\Rips\I Killed The Prom Queen - - When Goodbye Means Forever [FLAC]{Text}7 - Roses, Post Cards & Machine Gun Kisses.wav

Peak level 98.8 %
Track quality 99.9 %
Test CRC 481BDBA7
Copy CRC 481BDBA7
Accurately ripped (confidence 1) [8E595FDB]
Copy OK

Track 8

Filename E:\Rips\I Killed The Prom Queen - - When Goodbye Means Forever [FLAC]{Text}8 - Forgiveness Is Murder.wav

Peak level 98.8 %
Track quality 100.0 %
Test CRC 2C7387B2
Copy CRC 2C7387B2
Accurately ripped (confidence 1) [23CB22C7]
Copy OK

Track 9

Filename E:\Rips\I Killed The Prom Queen - - When Goodbye Means Forever [FLAC]{Text}9 - Portraits, Dreams And Memories.wav

Peak level 98.8 %
Track quality 100.0 %
Test CRC 88D8A4EB
Copy CRC 88D8A4EB
Accurately ripped (confidence 1) [B37F8A7A]
Copy OK

Track 10

Filename E:\Rips\I Killed The Prom Queen - - When Goodbye Means Forever [FLAC]\10 - Are You Playing Dead .wav

Peak level 98.8 %
Track quality 100.0 %
Test CRC 356361EA
Copy CRC 356361EA
Accurately ripped (confidence 1) [5D4C5B5C]
Copy OK

Track 11

Filename E:\Rips\I Killed The Prom Queen - - When Goodbye Means Forever [FLAC]\11 - My Best Wishes.wav

Peak level 98.8 %
Track quality 100.0 %
Test CRC DA14D39C
Copy CRC DA14D39C
Accurately ripped (confidence 1) [F5D3DD6E]
Copy OK

All tracks accurately ripped

No errors occurred

End of status report
01. Never Never Land
02. Choose to Live or Die
03. You're Not Worth Saving
04. Dreams as Hearts Bleed
05. To Be Sleeping While Still Standing
06. The Paint Brush Killer
Exact Audio Copy V0.99 prebeta 4 from 23. January 2008

EAC extraction logfile from 7. May 2009, 0:13

I Killed The Prom Queen / Your Past Comes Back To Haunt You

Used drive : PIONEER DVD-RW DVR-216 Adapter: 3 ID: 0

Read mode : Secure
Utilize accurate stream : Yes
Defeat audio cache : Yes
Make use of C2 pointers : No

Read offset correction : 96
Overread into Lead-In and Lead-Out : No
Fill up missing offset samples with silence : Yes
Delete leading and trailing silent blocks : No
Null samples used in CRC calculations : Yes
Used interface : Native Win32 interface for Win NT & 2000
Gap handling : Appended to previous track

Used output format : User Defined Encoder
Selected bitrate : 320 kBit/s
Quality : High
Add ID3 tag : No
Command line compressor : C:\Program Files\Exact Audio Copy\Flac\flac.exe
Additional command line options : -V -8 -T "artist=%a" -T "title=%t" -T "album=%g" -T "date=%y" -T "tracknumber=%n" -T "genre=%m" %s

TOC of the extracted CD

Track | Start | Length | Start sector | End sector
---------------------------------------------------------
1 | 0:00.00 | 3:08.40 | 0 | 14139
2 | 3:08.40 | 3:05.36 | 14140 | 28050
3 | 6:14.01 | 1:28.55 | 28051 | 34705
4 | 7:42.56 | 3:12.66 | 34706 | 49171
5 | 10:55.47 | 4:03.49 | 49172 | 67445
6 | 14:59.21 | 8:47.36 | 67446 | 107006

Track 1

Filename E:\Rips\I Killed The Prom Queen - 2005 - Your Past Comes Back To Haunt You [FLAC]{Text}1 - Never Never Land.wav

Pre-gap length 0:00:02.00

Peak level 95.5 %
Track quality 100.0 %
Test CRC 3FC41F54
Copy CRC 3FC41F54
Track not present in AccurateRip database
Copy OK

Track 2

Filename E:\Rips\I Killed The Prom Queen - 2005 - Your Past Comes Back To Haunt You [FLAC]{Text}2 - Choose To Live Or Die.wav

Pre-gap length 0:00:02.00

Peak level 95.5 %
Track quality 100.0 %
Test CRC 52DE1487
Copy CRC 52DE1487
Track not present in AccurateRip database
Copy OK

Track 3

Filename E:\Rips\I Killed The Prom Queen - 2005 - Your Past Comes Back To Haunt You [FLAC]{Text}3 - You're Not Worth Saving.wav

Pre-gap length 0:00:02.00

Peak level 95.5 %
Track quality 100.0 %
Test CRC 6AED00B1
Copy CRC 6AED00B1
Track not present in AccurateRip database
Copy OK

Track 4

Filename E:\Rips\I Killed The Prom Queen - 2005 - Your Past Comes Back To Haunt You [FLAC]{Text}4 - Dreams As Hearts Bleed.wav

Pre-gap length 0:00:02.00

Peak level 95.5 %
Track quality 100.0 %
Test CRC 32CDF68C
Copy CRC 32CDF68C
Track not present in AccurateRip database
Copy OK

Track 5

Filename E:\Rips\I Killed The Prom Queen - 2005 - Your Past Comes Back To Haunt You [FLAC]{Text}5 - To Be Sleeping While Still Standing.wav

Pre-gap length 0:00:02.00

Peak level 95.5 %
Track quality 100.0 %
Test CRC CCB66A92
Copy CRC CCB66A92
Track not present in AccurateRip database
Copy OK

Track 6

Filename E:\Rips\I Killed The Prom Queen - 2005 - Your Past Comes Back To Haunt You [FLAC]{Text}6 - The Paint Brush Killer.wav

Pre-gap length 0:00:02.00

Peak level 95.5 %
Track quality 100.0 %
Test CRC CB1956E5
Copy CRC CB1956E5
Track not present in AccurateRip database
Copy OK

None of the tracks are present in the AccurateRip database

No errors occurred

End of status report
01. Sharks in Your Mouth
02. Say Goodbye
03. ?666
04. Your Shirt Would Look Better With a Columbian Neck–tie
05. The Deepest Sleep
06. Bet It All on Black
07. Headfirst From a Hangman's Noose
08. Sleepless Nights and City Lights
09. Slain Upon My Faithful Sword
10. Like Nails to a Casket
11. There Will Be No Violins When You Die (Instrumental)
EAC extraction logfile from 13. November 2006, 19:35 for CD
I Killed The Prom Queen / Music For The Recently Deceased

Used drive : SONY DVD RW DW-U18A Adapter: 3 ID: 0
Read mode : Secure with NO C2, accurate stream, disable cache
Read offset correction : 12
Overread into Lead-In and Lead-Out : No

Used output format : C:\Program Files\FLAC\flac.exe (User Defined Encoder)
128 kBit/s
Additional command line options : -V -8 -T "artist=%a" -T "title=%t" -T "album=%g" -T "date=%y" -T "tracknumber=%n" -T "genre=%m" %s

Other options :
Fill up missing offset samples with silence : Yes
Delete leading and trailing silent blocks : No
Native Win32 interface for Win NT & 2000

Track 1
Filename F:{Text}1 - Sharks In Your Mouth.wav

Pre-gap length 0:00:02.00

Peak level 98.8 %
Track quality 100.0 %
Test CRC C49D1229
Copy CRC C49D1229
Copy OK

Track 2
Filename F:{Text}2 - Say Goodbye.wav

Peak level 98.8 %
Track quality 100.0 %
Test CRC D164AACC
Copy CRC D164AACC
Copy OK

Track 3
Filename F:{Text}3 - 666.wav

Peak level 98.8 %
Track quality 100.0 %
Test CRC CDBF0AEB
Copy CRC CDBF0AEB
Copy OK

Track 4
Filename F:{Text}4 - Your Shirt Would Look Better With a Columbian Neck-tie.wav

Peak level 98.8 %
Track quality 99.9 %
Test CRC 98C4A4D0
Copy CRC 98C4A4D0
Copy OK

Track 5
Filename F:{Text}5 - The Deepest Sleep.wav

Peak level 98.8 %
Track quality 100.0 %
Test CRC 0A6D8297
Copy CRC 0A6D8297
Copy OK

Track 6
Filename F:{Text}6 - Bet It All On Black.wav

Peak level 98.8 %
Track quality 100.0 %
Test CRC 50F798E0
Copy CRC 50F798E0
Copy OK

Track 7
Filename F:{Text}7 - Headfirst From a Hangman's Noose.wav

Peak level 98.8 %
Track quality 100.0 %
Test CRC C11DA0A9
Copy CRC C11DA0A9
Copy OK

Track 8
Filename F:{Text}8 - Sleepless Nights and City Lights.wav

Peak level 98.8 %
Track quality 100.0 %
Test CRC 772F9D03
Copy CRC 772F9D03
Copy OK

Track 9
Filename F:{Text}9 - Slain Upon My Faithful Sword.wav

Peak level 98.8 %
Track quality 100.0 %
Test CRC 03D2411A
Copy CRC 03D2411A
Copy OK

Track 10
Filename F:\10 - Like Nails To A Casket.wav

Peak level 98.8 %
Track quality 100.0 %
Test CRC A061067E
Copy CRC A061067E
Copy OK

Track 11
Filename F:\11 - There Will be no Violins When You Die.wav

Peak level 98.8 %
Track quality 100.0 %
Test CRC 93B56671
Copy CRC 93B56671
Copy OK

No errors occured

End of status report

apach
apach

Имя:
E-mail (не обязательно):
Используется для уведомления о правильности ответа.
адм