как разбогатеть как стать богатым

(MetalCore) Inhale Exhale - Bury Me Alive - 2009, FLAC (tracks), lossless

Inhale Exhale - Bury Me Alive

Страна: USA
Жанр: MetalCore
Год выпуска: 2009
Формат: FLAC (tracks)
Битрейт аудио: lossless
Продолжительность: 39:01
Трэклист:
01. (03:24) Rooms
02. (03:12) Did You Ever Have a Touch to Lose?
03. (03:51) Condemned
04. (03:51) Over and Out
05. (04:13) A Dark Place for Your Mind to Be
06. (03:53) Intentions
07. (03:58) Explosions
08. (03:55) Fiction
09. (03:33) Better Her than Me
10. (02:03) Thin Black Lines
11. (03:09) An Era
Состав группы:
Brian Pittman: Bass (ex-Relient K)
John LaRussa: Guitar (ex-Narcissus)
Ryland Raus: Vocals (ex-Widdlesworth)
Chris Murk: Vocals, Drums (ex-Last Tuesday)
Exact Audio Copy V0.99 prebeta 4 from 23. January 2008

EAC extraction logfile from 5. October 2009, 16:36

Inhale/Exhale / Bury Me Alive

Used drive : MATSHITADVD-R UJ-85J Adapter: 0 ID: 0

Read mode : Secure
Utilize accurate stream : Yes
Defeat audio cache : Yes
Make use of C2 pointers : No

Read offset correction : 102
Overread into Lead-In and Lead-Out : No
Fill up missing offset samples with silence : Yes
Delete leading and trailing silent blocks : No
Null samples used in CRC calculations : Yes
Used interface : Native Win32 interface for Win NT & 2000
Gap handling : Appended to previous track

Used output format : User Defined Encoder
Selected bitrate : 320 kBit/s
Quality : High
Add ID3 tag : No
Command line compressor : C:\Program Files\Exact Audio Copy\Flac\flac.exe
Additional command line options : -V -8 -T "artist=%a" -T "title=%t" -T "album=%g" -T "date=%y" -T "tracknumber=%n" -T "genre=%m" %s

TOC of the extracted CD

Track | Start | Length | Start sector | End sector
---------------------------------------------------------
1 | 0:00.00 | 3:23.70 | 0 | 15294
2 | 3:23.70 | 3:12.04 | 15295 | 29698
3 | 6:35.74 | 3:50.46 | 29699 | 46994
4 | 10:26.45 | 3:51.31 | 46995 | 64350
5 | 14:18.01 | 4:12.50 | 64351 | 83300
6 | 18:30.51 | 3:52.73 | 83301 | 100773
7 | 22:23.49 | 3:57.39 | 100774 | 118587
8 | 26:21.13 | 3:54.66 | 118588 | 136203
9 | 30:16.04 | 3:32.51 | 136204 | 152154
10 | 33:48.55 | 2:03.06 | 152155 | 161385
11 | 35:51.61 | 3:09.28 | 161386 | 175588

Track 1

Filename C:{Text}1 Rooms.wav

Pre-gap length 0:00:02.00

Peak level 99.8 %
Track quality 100.0 %
Test CRC 6CF672C2
Copy CRC 6CF672C2
Track not present in AccurateRip database
Copy OK

Track 2

Filename C:{Text}2 Did You Ever Have a Touch to Lose .wav

Peak level 99.8 %
Track quality 100.0 %
Test CRC 26125782
Copy CRC 26125782
Track not present in AccurateRip database
Copy OK

Track 3

Filename C:{Text}3 Condemned.wav

Peak level 99.8 %
Track quality 100.0 %
Test CRC 1925A161
Copy CRC 1925A161
Track not present in AccurateRip database
Copy OK

Track 4

Filename C:{Text}4 Over and Out.wav

Peak level 99.8 %
Track quality 99.9 %
Test CRC E5E1FEB9
Copy CRC E5E1FEB9
Track not present in AccurateRip database
Copy OK

Track 5

Filename C:{Text}5 A Dark Place for Your Mind to Be.wav

Peak level 99.8 %
Track quality 99.9 %
Test CRC 117063DB
Copy CRC 117063DB
Track not present in AccurateRip database
Copy OK

Track 6

Filename C:{Text}6 Intentions.wav

Peak level 99.8 %
Track quality 100.0 %
Test CRC D16FC9F2
Copy CRC D16FC9F2
Track not present in AccurateRip database
Copy OK

Track 7

Filename C:{Text}7 Explosions.wav

Peak level 99.8 %
Track quality 100.0 %
Test CRC 2A549D93
Copy CRC 2A549D93
Track not present in AccurateRip database
Copy OK

Track 8

Filename C:{Text}8 Fiction.wav

Peak level 99.8 %
Track quality 100.0 %
Test CRC C2641122
Copy CRC C2641122
Track not present in AccurateRip database
Copy OK

Track 9

Filename C:{Text}9 Better Her than Me.wav

Peak level 99.8 %
Track quality 100.0 %
Test CRC D354C43F
Copy CRC D354C43F
Track not present in AccurateRip database
Copy OK

Track 10

Filename C:\10 Thin Black Lines.wav

Peak level 99.7 %
Track quality 100.0 %
Test CRC A8596993
Copy CRC A8596993
Track not present in AccurateRip database
Copy OK

Track 11

Filename C:\11 An Era.wav

Peak level 99.8 %
Track quality 100.0 %
Test CRC 8F7102AE
Copy CRC 8F7102AE
Track not present in AccurateRip database
Copy OK

None of the tracks are present in the AccurateRip database

No errors occurred

End of status report

Цитата:

Кливлендские экспериментальные металисты Inhale Exhale анонсировали выход своего нового полноформатника на 6-е октября этого года. Альбом озаглавлен "Bury Me Alive" и вышел в свет на Solid State Records.

"С новым релизом мы сели и попробовали создать что-то иное и новое для наших фанатов, - объясняет гитарист и автор песен Джон ЛаРусса (LaRussa) – Нам кажется, что это тот альбом, который они хотели от нас услышать. В песнях стало намного больше энергии, они стали заковыристее, чувствуется то, как прогрессировал наш процесс создания песен."

apach
apach

Имя:
E-mail (не обязательно):
Используется для уведомления о правильности ответа.
адм