как разбогатеть как стать богатым

(MetalCore) Inhale Exhale - The Lost, The Sick, The Sacred - 2006, FLAC (tracks), lossless

Inhale Exhale - The Lost, The Sick, The Sacred

Жанр: MetalCore
Год выпуска: 2006
Формат: FLAC (tracks)
Битрейт аудио: lossless
Трэклист:
01. Redemption
02. By Grace
03. Frail Dreams And Rude Awakening
04. Danc All Naight
05. A Call To The Faithful
06. Touch Of Deception
07. Your Walls...My Words
08. Tonight We Die Together
09. Sons Of Tomorrow (To Noah James)
10. Rose Among The Ashes
11. The Lost The Sick The Sacred
Состав группы:
Brian Pittman: Bass (ex-Relient K)
John LaRussa: Guitar (ex-Narcissus)
Ryland Raus: Vocals (ex-Widdlesworth)
Chris Murk: Vocals, Drums (ex-Last Tuesday)
EAC extraction logfile from 29. May 2007, 19:32 for CD
Inhale Exhale / The Lost The Sick The Sacred

Used drive : HP DVD Writer 740e Adapter: 2 ID: 0
Read mode : Secure with NO C2, accurate stream, disable cache
Read offset correction : 102
Overread into Lead-In and Lead-Out : No

Used output format : C:\Program Files\FLAC\flac.exe (User Defined Encoder)
192 kBit/s
Additional command line options : -V -8 -T "artist=%a" -T "title=%t" -T "album=%g" -T "date=%y" -T "tracknumber=%n" -T "genre=%m" %s

Other options :
Fill up missing offset samples with silence : Yes
Delete leading and trailing silent blocks : No
Native Win32 interface for Win NT & 2000

Track 1
Filename D:\FlacRip\Inhale Exhale - The Lost The Sick The Sacred{Text}1 - Redemption.wav

Pre-gap length 0:00:02.00

Peak level 100.0 %
Track quality 100.0 %
Test CRC F6E7DB15
Copy CRC F6E7DB15
Copy OK

Track 2
Filename D:\FlacRip\Inhale Exhale - The Lost The Sick The Sacred{Text}2 - By Grace.wav

Peak level 100.0 %
Track quality 100.0 %
Test CRC A9373C03
Copy CRC A9373C03
Copy OK

Track 3
Filename D:\FlacRip\Inhale Exhale - The Lost The Sick The Sacred{Text}3 - Frail Dreams And Rude Awakenings.wav

Peak level 100.0 %
Track quality 100.0 %
Test CRC F39FD615
Copy CRC F39FD615
Copy OK

Track 4
Filename D:\FlacRip\Inhale Exhale - The Lost The Sick The Sacred{Text}4 - Dance All Night.wav

Peak level 100.0 %
Track quality 99.9 %
Test CRC 1BA9E1AE
Copy CRC 1BA9E1AE
Copy OK

Track 5
Filename D:\FlacRip\Inhale Exhale - The Lost The Sick The Sacred{Text}5 - A Call To The Faithful.wav

Peak level 100.0 %
Track quality 100.0 %
Test CRC 34333CE7
Copy CRC 34333CE7
Copy OK

Track 6
Filename D:\FlacRip\Inhale Exhale - The Lost The Sick The Sacred{Text}6 - Touch Of Deception.wav

Peak level 100.0 %
Track quality 100.0 %
Test CRC 6FDFCFAF
Copy CRC 6FDFCFAF
Copy OK

Track 7
Filename D:\FlacRip\Inhale Exhale - The Lost The Sick The Sacred{Text}7 - Your Walls... My Words.wav

Peak level 100.0 %
Track quality 100.0 %
Test CRC 8C9DB080
Copy CRC 8C9DB080
Copy OK

Track 8
Filename D:\FlacRip\Inhale Exhale - The Lost The Sick The Sacred{Text}8 - Tonight We Die Together.wav

Peak level 100.0 %
Track quality 99.9 %
Test CRC 2DDEE402
Copy CRC 2DDEE402
Copy OK

Track 9
Filename D:\FlacRip\Inhale Exhale - The Lost The Sick The Sacred{Text}9 - Sons Of Tomorrow [To Noah James].wav

Peak level 100.0 %
Track quality 99.9 %
Test CRC 38BF63DE
Copy CRC 38BF63DE
Copy OK

Track 10
Filename D:\FlacRip\Inhale Exhale - The Lost The Sick The Sacred\10 - Rose Among The Ashes.wav

Peak level 100.0 %
Track quality 100.0 %
Test CRC 8B8D05F3
Copy CRC 8B8D05F3
Copy OK

Track 11
Filename D:\FlacRip\Inhale Exhale - The Lost The Sick The Sacred\11 - The Lost The Sick The Sacred.wav

Peak level 100.0 %
Track quality 100.0 %
Test CRC 5259C907
Copy CRC 5259C907
Copy OK

No errors occured

End of status report

apach
apach

Имя:
E-mail (не обязательно):
Используется для уведомления о правильности ответа.
адм